Почти человек / Almost Human / Сезон: 1 / Серии: 1-13 из 13 (Брэд Андерсон, Майкл Оффер) [2013, фантастика, боевик, драма, WEB-DLRip] MVO (LostFilm)

Ответить на тему
 
Автор
Сообщение

awk05 ®

Пол:

Стаж: 4 года 5 месяцев

Сообщений: 1352

Репутация: 275 [+] [-]

Откуда: Западная Украина Ривне

Пост 19-Ноя-2013 23:43

[Цитировать] 

--Почти человек / Almost Human--Одни копами рождаются. Другие ими становятся-- Год выпуска: 2013
Страна: США
Жанр: фантастика, боевик, драма
Сезон/Серия: Сезон:1 /Серия 1-13 из 13
Продолжительность: 13 х ~00:45:00 серия
Перевод: Профессиональный (многоголосый закадровый) - --Режиссёр: Брэд Андерсон, Майкл Оффер--В ролях: Карл Урбан (John Kennex), Майкл Или (Dorian), Минка Келли (Valerie Stahl), Майкл Ирби (Detective Richard Paul), Макензи Крук (Rudy Lom), Лили Тейлор (Maldonado), Джо Смит (MX), Кэролайн Мэтьюз (Office Worker), Джейм Каллика (Officer Ederis), Элла Томас (Vanessa), Андрей Ковски (Radovan), Лиэнн Адачи (Patel)--Описание: Действие происходит в будущем, когда порядок на улицах городов обеспечивают не только «живые» полицейские, но и высокотехнологичные андроиды.
Джон Кеннекс — полицейский, который пережил одну из самых катастрофических атак на департамент полиции. Очнувшись после 17 месяцев пребывания в коме, он не может вспомнить много, но точно помнит, что его напарника убили. Его девушка ушла от него сразу после нападения. Джон потерял ногу и теперь ее заменяет сложная синтетическая конструкция…-- --Качество: WEB-DLRip
Формат: AVI
Видео кодек:: XviD
Аудио кодек:: AC3
Видео: 720x400 (16:9), 23,976 fps, 1718 kb/s, 0.249 bit/pixel
Аудио Rus: 48,0 KHz, 2 ch, 192 kb/s - многоголосый закадровый

Список серий


1. Пилот (Pilot)
2. Кожа (Skin)
3. На связи (Are You Receiving?)
4. Кессон (The Bends)
5. Братья по крови (Blood Brothers)
6. Аритмия (Arrhythmia)
7. Саймона (Simon Says)
8. Вы здесь (You Are Here)
9. На свободе (Unbound)
10. Осознание (Perception)
11. Срыв (Disrupt)
12. Очевидец (Beholder)
13. Соломенный человек (Straw Man)

MediaInfo

Общее
Полное имя : G:\Almost Human 1 - LostFilm.TV\Almost.Human.S01E01.rus.LostFilm.TV.avi
Формат : AVI
Формат/Информация : Audio Video Interleave
Размер файла : 628 Мбайт
Продолжительность : 45 м.
Режим общего битрейта : Переменный
Общий поток : 1919 Кбит/сек
Программа кодирования : Nandub v1.0rc2
Библиотека кодирования : Nandub build 1853/release
Видео
Идентификатор : 0
Формат : MPEG-4 Visual
Профиль формата : Simple@L3
Параметр BVOP формата : Нет
Параметр QPel формата : Нет
Параметр GMC формата : Без точки перехода
Параметр матрицы формата : Default (H.263)
Идентификатор кодека : XVID
Идентификатор кодека/Подсказка : XviD
Продолжительность : 45 м.
Битрейт : 1718 Кбит/сек
Ширина : 720 пикселей
Высота : 400 пикселей
Соотношение сторон : 16:9
Частота кадров : 23,976 кадра/сек
Цветовое пространство : YUV
Субдискретизация насыщенности : 4:2:0
Битовая глубина : 8 бит
Тип развёртки : Прогрессивная
Метод сжатия : С потерями
Бит/(Пиксели*Кадры) : 0.249
Размер потока : 562 Мбайт (90%)
Библиотека кодирования : XviD 1.2.1 (UTC 2008-12-04)
Аудио
Идентификатор : 1
Формат : MPEG Audio
Версия формата : Version 1
Профиль формата : Layer 3
Режим : Joint stereo
Расширение режима : MS Stereo
Идентификатор кодека : 55
Идентификатор кодека/Подсказка : MP3
Продолжительность : 45 м.
Вид битрейта : Переменный
Битрейт : 192 Кбит/сек
Каналы : 2 канала
Частота : 48,0 КГц
Метод сжатия : С потерями
Размер потока : 61,5 Мбайт (10%)
Выравнивание : Соединение по промежуткам
Продолжительность промежутка : 24 мс. (0,58 видеокадр)
Время предзагрузки промежутка : 502 мс.
Библиотека кодирования : LAME3.97b
Настройки программы : -m j -V 4 -q 3 -lowpass 18.6 --abr 192

Скриншоты

Раздача ведётся путём добавления новых серий

Раздача ведётся путём добавления новых серий; при каждом добавлении создаётся новый торрент. Чтобы начать докачку новой серии, пользователям необходимо сделать следующее:
(1) остановить скачивание,
(2) удалить старый торрент у себя из клиента (старые серии удалять не надо),
(3) скачать новый торрент и запустить его у себя в клиенте вместо старого, при этом указать клиенту путь в старую папку куда и должно происходить скачивание новых серий.
Ваш клиент при этом должен произвести хеширование (проверку) старой папки (если не производит сам - помогите ему сделать это), и будет докачивать только те серии которых у вас ещё нет. Старые серии при этом не удаляются, а продолжают раздаваться!
Eсли вы уже удалили старые серии, то предотвратить повторную закачку старых серий можно, отжав галочку в соответствующих местах при запуске нового торрента. По возможности, желательно не удалять старые серии как можно дольше чтобы релизёр не столько продолжал раздавать старые серии, а смог сконцентрироваться на новых.

_________________


Последний раз редактировалось: awk05 (2013-11-28 00:22), всего редактировалось 1 раз
[Торрент-статистика]
[Профиль]  [ЛС] 
Показать сообщения:    
Ответить на тему

Текущее время: Сегодня 10:04

Часовой пояс: GMT + 4



Вы не можете начинать темы
Вы не можете отвечать на сообщения
Вы не можете редактировать свои сообщения
Вы не можете удалять свои сообщения
Вы не можете голосовать в опросах
Вы не можете прикреплять файлы к сообщениям
Вы не можете скачивать файлы