Почти человек / Almost Human / Сезон: 1 / Серии: 1-13 из 13 (Брэд Андерсон, Майкл Оффер) [2013, фантастика, боевик, драма, WEB-DLRip] MVO (BaibaKo)

Ответить на тему
 
Автор
Сообщение

awk05 ®

Пол:

Стаж: 4 года 5 месяцев

Сообщений: 1352

Репутация: 275 [+] [-]

Откуда: Западная Украина Ривне

Пост 19-Ноя-2013 14:37

[Цитировать] 

--Почти человек / Almost Human-- Год выпуска: 2013
Страна: США
Жанр: фантастика, боевик, драма
Сезон/Серия: Сезон:1 /Серия 1-13 из 13
Продолжительность: 13 х 00:45:00--Перевод: Профессиональный (многоголосый закадровый) -
Автор перевода: Татьяна Saavick
Озвучка: Лира Грим, Олекса Мельник, Дмитрий Глебов, Акмал Гурезов
Обложка: tvblog--Субтитры: отсутствуют--Режиссёр: Брэд Андерсон, Майкл Оффер--В ролях: Карл Урбан (John Kennex), Майкл Или (Dorian), Минка Келли (Valerie Stahl), Майкл Ирби (Detective Richard Paul), Макензи Крук (Rudy Lom), Лили Тейлор (Maldonado), Джо Смит (MX), Кэролайн Мэтьюз (Office Worker), Джейм Каллика (Officer Ederis), Элла Томас (Vanessa), Андрей Ковски (Radovan), Лиэнн Адачи (Patel).--Описание: 2048 год. Наука и технологии достигли невиданного развития. Улицы и школы заполонили неизвестные наркотики и новое оружие. Контрабанда контролируется и распространяется жестокими безликими криминальными группировками. преступности возрос до неимоверных 400%. Уступающие в численности и обессиленные правоохранительные органы применяют новую стратегию: напарником каждого полицейского становится усовершенствованная боевая модель андроида.
Джон Кеннекс — полицейский, который пережил одну из самых катастрофических атак на департамент полиции. Джон потерял ногу и теперь ее заменяет сложная синтетическая конструкция. Очнувшись после 17 месяцев пребывания в коме, он многое не может вспомнить, но точно помнит, что его напарника убили. Теперь с ним на службе робот DNR - почти человек, способный испытывать эмоции.--Качество: WEB-DLRip
Формат: AVI
Видео кодек: XviD
Аудио кодек: MP3
Видео: 720x400 (16:9), 23,976 кадра/сек, 1435 Кбит/сек, 0.218 Бит/(Пиксели*Кадры)
Аудио 1: 2 канала Front: L R, 48,0 КГц, 192 Кбит/сек, 16 бит [RUS] MVO
Аудио 2: 2 канала Front: L R, 48,0 КГц, 192 Кбит/сек, 16 бит [ENG]-- --

Список серий


01. Пилот
02. Skin / Кожа
03. Are You Receiving? / Ты ловишь сигнал?
04. The Bends / Кессонная дурь
05. Blood Brothers / Братья по крови
06. Arrhythmia / Аритмия
07. Simon Says / Говорит Саймон
08. You Are Here / Ты здесь
09. Unbound / Освобождённая
10. Perception / Восприятие
11. Disrupt / Разрыв
12. Beholder / Созерцатель
13. Straw Man / Cоломенный человек

MediaInfo

Расположение: E:\СЕРИАЛЫ\Почти человек (Сезон 1) Almost Human (2013) WEB-DLRip - BaibaKo\Almost.Human.s01e01.WEB-DLRip.XviD.Rus.Eng.BaibaKo.tv.avi
Имя файла: Almost.Human.s01e01.WEB-DLRip.XviD.Rus.Eng.BaibaKo.tv.avi
Формат файла: .avi (AVI)
Размер файла: 621.60 MB
Длительность: 45mn 37s
Навигация по главам: Нет
Битрейт (все потоки): 1 905 Kbps
Создан при помощи: VirtualDubMod 1.5.10.2 (build 2542/release)
Использовалась библиотека: VirtualDubMod build 2542/release
Обложка: Отсутствует
Название: Almost.Human.s01e01.WEB-DLRip.XviD.Rus.Eng.BaibaKo.tv
Тип потока: Видео
Длительность: 00:45:37
Кодек: MPEG-4 Visual
Кодек/профиль: Advanced Simple@L5
Кодек/ID: XVID
Размеры изображения: 720 x 400 (16:9)
Частота кадров: 23.976 fps
Размер потока: 468 MiB (75%)
Битрейт: 1 435 Kbps
Метод сжатия: Lossy
Библиотека кодирования: XviD 1.2.1 (UTC 2008-12-04)
Цветовое пространство: YUV
Тип развёртки: Progressive
Глубина: 8 bits
Тип потока: Звук #1
Длительность: 00:45:37.320
Кодек: MPEG Audio
Кодек/профиль: Layer 3
Кодек/ID: 55
Частота дискретизации: 48.0 KHz
Каналов: 2 channels
Битрейт: 192 Kbps
Битрейт/тип: Constant
Размер потока: 62.7 MiB (10%)
Метод сжатия: Lossy
Программа: LAME3.99r
Настройки программы: -m j -V 4 -q 2 -lowpass 18.6 -b 192
Тип потока: Звук #2
Длительность: 00:45:37.320
Кодек: MPEG Audio
Кодек/профиль: Layer 3
Кодек/ID: 55
Частота дискретизации: 48.0 KHz
Каналов: 2 channels
Битрейт: 192 Kbps
Битрейт/тип: Constant
Размер потока: 62.7 MiB (10%)
Метод сжатия: Lossy
Программа: LAME3.99r
Настройки программы: -m j -V 4 -q 2 -lowpass 18.6 -b 192

Скриншоты

Раздача ведётся путём добавления новых серий

Раздача ведётся путём добавления новых серий; при каждом добавлении создаётся новый торрент. Чтобы начать докачку новой серии, пользователям необходимо сделать следующее:
(1) остановить скачивание,
(2) удалить старый торрент у себя из клиента (старые серии удалять не надо),
(3) скачать новый торрент и запустить его у себя в клиенте вместо старого, при этом указать клиенту путь в старую папку куда и должно происходить скачивание новых серий.
Ваш клиент при этом должен произвести хеширование (проверку) старой папки (если не производит сам - помогите ему сделать это), и будет докачивать только те серии которых у вас ещё нет. Старые серии при этом не удаляются, а продолжают раздаваться!
Eсли вы уже удалили старые серии, то предотвратить повторную закачку старых серий можно, отжав галочку в соответствующих местах при запуске нового торрента. По возможности, желательно не удалять старые серии как можно дольше чтобы релизёр не столько продолжал раздавать старые серии, а смог сконцентрироваться на новых.

_________________


Последний раз редактировалось: awk05 (2014-03-05 16:17), всего редактировалось 18 раз(а)
[Торрент-статистика]
[Профиль]  [ЛС] 

Chet

Пол:

Стаж: 5 лет 1 месяц

Сообщений: 1866

Репутация: 363 [+] [-]

Откуда: UA

Пост 20-Ноя-2013 01:13 (спустя 10 часов)

[Цитировать] 

37966Уровень преступности возрос до неимоверных 400%
бред ac это я ща как технарь сказал ad
[Торрент-статистика]
[Профиль]  [ЛС] 

arabella

Стаж: 2 года 10 месяцев

Сообщений: 13

Репутация: 33 [+] [-]

Пост 12-Фев-2014 19:52 (спустя 2 месяца 22 дня)

[Цитировать] 

38012
37966Уровень преступности возрос до неимоверных 400%
бред ac это я ща как технарь сказал ad
а мне понравился....необычно....
[Торрент-статистика]
[Профиль]  [ЛС] 

arabella

Стаж: 2 года 10 месяцев

Сообщений: 13

Репутация: 33 [+] [-]

Пост 12-Фев-2014 19:54 (спустя 1 минута)

[Цитировать] 

хороший сценарий cb
[Торрент-статистика]
[Профиль]  [ЛС] 

Alav

Стаж: 4 года 8 месяцев

Сообщений: 13

Репутация: 7 [+] [-]

Пост 13-Фев-2014 00:17 (спустя 4 часа)

[Цитировать] 

Chet, Что именно тебя смущает
Например 1987 год, Россия, уровень преступности 814 на 100 тысяч человек постоянного населения
Возьмем 2007 год. Уровень преступности 3000 на 100 тысяч
Итого уровень преступности вырос на 368,5%, т.е. почти на 400%
И это можно сказать официальные данные, что же вас так смущает в этой фразе?
[Торрент-статистика]
[Профиль]  [ЛС] 
Показать сообщения:    
Ответить на тему

Текущее время: Сегодня 16:44

Часовой пояс: GMT + 4



Вы не можете начинать темы
Вы не можете отвечать на сообщения
Вы не можете редактировать свои сообщения
Вы не можете удалять свои сообщения
Вы не можете голосовать в опросах
Вы не можете прикреплять файлы к сообщениям
Вы не можете скачивать файлы