Чингисхан / Genghis Khan / 1сезон / серии 1-30 из 30 (Чжу Вэньцзе) [2006 г., Исторический боевик, DVDRip]

Ответить на тему
 
Автор
Сообщение

3232fox ®

Пол:

Стаж: 3 года 8 месяцев

Сообщений: 614

Репутация: 423 [+] [-]

Откуда: Крым,Россия

Пост 18-Ноя-2013 01:09

[Цитировать] 

-Чингисхан / Genghis Khan--Год выпуска: 2006
Страна: Китай
Жанр: Исторический боевик
Продолжительность: ~ 00:45:00
Перевод: Профессиональный (многоголосый, закадровый)--Режиссер: Чжу Вэньцзе--В ролях: Ба Лин, Сажэнь Гаова, Чжао Хэнсюань--Описание: Описание: 800 лет назад монгольская степь была заселена множеством племен, самыми крупными из которых были кераиты, меркиты, татары, найманы, монголы. Эти пять крупных племен были независимыми и не подчинялись друг другу. Династия Цзинь в отношении них осуществляла политику «разделяй и властвуй», проводила разбойные набеги, сокращая население этих племен. Эта вражда привела к длительным войнам как на территории монгольской степи, так и за ее пределами, в ходе которых многие монгольские племена и их ханы пролили свою кровь и лишились жизни.--
--Тип релиза: DVDRip
Контейнер: AVI
Видео кодек: XviD
Аудио кодек: MP3 (MPEG1 Layer 3)
Видео: ~1018 Kbps, 25.0 fps, разрешение 336х256 (4:3)
Аудио: 128 Kbps, 48000 Hz, 2 канала, MPEG Layer-3--

Скриншоты

MI

G:\видео\chingizhan\01.avi
General
Complete name : G:\видео\chingizhan\01.avi
Format : AVI
Format/Info : Audio Video Interleave
File size : 351 MiB
Duration : 45mn 19s
Overall bit rate : 1 081 Kbps
Writing application : VirtualDubMod 1.5.4.1 (build 2178/release)
Writing library : VirtualDubMod build 2178/release
Video #0
ID : 0
Format : MPEG-4 Visual
Format profile : Advanced Simple@L5
Format settings, BVOP : Yes
Format settings, QPel : No
Format settings, GMC : No warppoints
Format settings, Matrix : Custom
Codec ID : XVID
Codec ID/Hint : XviD
Duration : 45mn 19s
Bit rate : 946 Kbps
Width : 336 pixels
Height : 256 pixels
Display aspect ratio : 4:3
Frame rate : 25.000 fps
Resolution : 8 bits
Colorimetry : 4:2:0
Scan type : Progressive
Bits/(Pixel*Frame) : 0.440
Stream size : 307 MiB (87%)
Writing library : XviD 1.2.0.dev47 (UTC 2006-11-01)
Audio #1
ID : 1
Format : MPEG Audio
Format version : Version 1
Format profile : Layer 3
Mode : Joint stereo
Format_Settings_ModeExtension : MS Stereo
Codec ID : 55
Codec ID/Hint : MP3
Duration : 45mn 19s
Bit rate mode : Constant
Bit rate : 128 Kbps
Channel(s) : 2 channels
Sampling rate : 48.0 KHz
Stream size : 41.5 MiB (12%)
Alignment : Aligned on interleaves
Interleave, duration : 80 ms (2.00 video frames)
Interleave, preload duration : 504 ms
Writing library : LAME3.97
Encoding settings : -m j -V 4 -q 2 -lowpass 17 -b 128
Language : Russian


Последний раз редактировалось: 3232fox (2013-11-19 00:14), всего редактировалось 1 раз
[Торрент-статистика]
[Профиль]  [ЛС] 

3232fox ®

Пол:

Стаж: 3 года 8 месяцев

Сообщений: 614

Репутация: 423 [+] [-]

Откуда: Крым,Россия

Пост 18-Ноя-2013 01:13 (спустя 3 минуты)

[Цитировать] 

Пока качество слабое но как найду лутше переделаю
[Торрент-статистика]
[Профиль]  [ЛС] 

alien.09

Пол:

Стаж: 3 года 7 месяцев

Сообщений: 748

Репутация: 550 [+] [-]

Пост 18-Ноя-2013 01:53 (спустя 39 минут)

[Цитировать] 

3232fox,
рейтинг на кинопоиске 8,552

на всякий случай- сделать ссыль кноп на кинопоиск

заходим на кинопоиск, вводим название, выбираем по году (одноимённых может быть несколько), клик по большим зелёным цифрам. страница обновится, клик по ссыли "для форума", копируем и вставляем в свою тему.
мессагу, если не нужна- затру

_________________
Правообладатели, убейтесь об эту надпись.
[Торрент-статистика]
[Профиль]  [ЛС] 

3232fox ®

Пол:

Стаж: 3 года 8 месяцев

Сообщений: 614

Репутация: 423 [+] [-]

Откуда: Крым,Россия

Пост 18-Ноя-2013 14:28 (спустя 12 часов)

[Цитировать] 

379183232fox,
рейтинг на кинопоиске 8,552

на всякий случай- сделать ссыль кноп на кинопоиск

заходим на кинопоиск, вводим название, выбираем по году (одноимённых может быть несколько), клик по большим зелёным цифрам. страница обновится, клик по ссыли "для форума", копируем и вставляем в свою тему.
мессагу, если не нужна- затру
Попробую
[Торрент-статистика]
[Профиль]  [ЛС] 
Показать сообщения:    
Ответить на тему

Текущее время: Сегодня 10:07

Часовой пояс: GMT + 4



Вы не можете начинать темы
Вы не можете отвечать на сообщения
Вы не можете редактировать свои сообщения
Вы не можете удалять свои сообщения
Вы не можете голосовать в опросах
Вы не можете прикреплять файлы к сообщениям
Вы не можете скачивать файлы