Терра Нова / Terra Nova / Сезон: 1 / Серии: 1-13 (13) (Алекс Грейвз) [2011, драма, фантастика, 720x400 HDTVRip HQ] (DD 5.1 Первый канал) rus eng sub

Ответить на тему
 
Автор
Сообщение

awk05 ®

Пол:

Стаж: 4 года 5 месяцев

Сообщений: 1352

Репутация: 275 [+] [-]

Откуда: Западная Украина Ривне

Пост 17-Ноя-2013 15:46

[Цитировать] 

--Терра Нова / Terra Nova -- Год выпуска: 2011
Страна: США
Жанр: драма, фантастика
Продолжительность: ~ 43 мин / серия
Перевод: Профессиональный многоголосый закадровый (Первый канал)
Субтитры: есть
Главы: есть--Режиссёр: Алекс Грейвз--В ролях: Джейсон О’Мара, Кристин Адамс, Байрон Дж. Брочманн, Джоэль Амос Бернс, Джейсон Чонг, Шелли Конн, Эка Дарвилл, Айша Ди, Дин Гейер, Мидо Хамада, Симона Кессель, Стивен Лэнг, Лэндон Лбуарон, Эллисон Миллер, Дэн Мор, Сэм Парсонсон, Роми Полье, Тоня Рени, Наоми Скотт, Валентино Дель Торо, Дэмиан Уолш-Хаулинг, Лаура Уитнолл и др.--Описание: 2149 год. Земля перенаселена. Большинство растений и животных уже исчезли с её лица. Будущее человечества под сомнением, единственную надежду на выживание ученые видят в прошлом. Неожиданно обнаруженный ими пространственно-временной портал позволяет претворить в жизнь самый смелый план – переселить людей на 85 миллионов лет назад с целью повторного восстановления цивилизации. Семье Шеннонов выпадает честь присоединиться к десятому паломничеству переселенцев на Тerra Nova.--Доп. информация: Русская звуковая дорожка сделана путем наложения чистого голоса озвучивателей на центральный канал оригинальной дорожки. Качество идентично английской звуковой дорожке.--Качество: HDTVrip
Формат: AVI
Видео кодек: XviD
Аудио кодек: AC3
Видео: Xvid / 720x400 / 23.976 fps / ~1 850 Kbps / 0.267 bit/pixel
Аудио 1: Russian: Dolby Digital 5.1; 48 kHz; 448 kbps (Первый канал)
Аудио 2: English: Dolby Digital 5.1; 48 kHz; 448 kbps
Субтитры: русские, английские (Notabenoid)--

Список серий

Эпизод 01-02 — Происхождение: Части 1 и 2 (Genesis: Pt 1&2)
Эпизод 03 — Инстинкт (Instinct)
Эпизод 04 — То, что осталось (What remains)
Эпизод 05 — Побег (The Runaway)
Эпизод 06 — Устав (Bylaw)
Эпизод 07 — Сумерки (Nightfall)
Эпизод 08 — Доказательство (Proof)
Эпизод 09 — Противостояние (Vs.)
Эпизод 10 — Теперь ты меня видишь (Now You See Me)
Эпизод 11 — Внутри (Within)
Эпизод 12 — Оккупация (Occupation)
Эпизод 13 — Сопротивление (Resistance)

МI

General
Complete name : Terra.Nova.S01E01.720x400.HDTVripHQ.DD5.1-CEZAR.avi
Format : AVI
Format/Info : Audio Video Interleave
File size : 1.65 GiB
Duration : 1h 25mn
Overall bit rate : 2 755 Kbps
Writing application : VirtualDubMod 1.5.10.2 (build 2540/release)
Writing library : VirtualDubMod build 2540/release
Video
ID : 0
Format : MPEG-4 Visual
Format profile : Advanced Simple@L5
Format settings, BVOP : 1
Format settings, QPel : No
Format settings, GMC : No warppoints
Format settings, Matrix : Custom
Codec ID : XVID
Codec ID/Hint : XviD
Duration : 1h 25mn
Bit rate : 1 845 Kbps
Width : 720 pixels
Height : 400 pixels
Display aspect ratio : 16:9
Frame rate : 23.976 fps
Color space : YUV
Chroma subsampling : 4:2:0
Bit depth : 8 bits
Scan type : Progressive
Compression mode : Lossy
Bits/(Pixel*Frame) : 0.267
Stream size : 1.11 GiB (67%)
Writing library : XviD 64
Audio #1
ID : 1
Format : AC-3
Format/Info : Audio Coding 3
Mode extension : CM (complete main)
Codec ID : 2000
Duration : 1h 25mn
Bit rate mode : Constant
Bit rate : 448 Kbps
Channel(s) : 6 channels
Channel positions : Front: L C R, Side: L R, LFE
Sampling rate : 48.0 KHz
Bit depth : 16 bits
Compression mode : Lossy
Stream size : 275 MiB (16%)
Alignment : Split accross interleaves
Interleave, duration : 42 ms (1.00 video frame)
Interleave, preload duration : 500 ms
Title : ru-1 Chanel
Audio #2
ID : 2
Format : AC-3
Format/Info : Audio Coding 3
Mode extension : CM (complete main)
Codec ID : 2000
Duration : 1h 25mn
Bit rate mode : Constant
Bit rate : 448 Kbps
Channel(s) : 6 channels
Channel positions : Front: L C R, Side: L R, LFE
Sampling rate : 48.0 KHz
Bit depth : 16 bits
Compression mode : Lossy
Stream size : 275 MiB (16%)
Alignment : Split accross interleaves
Interleave, duration : 42 ms (1.00 video frame)
Interleave, preload duration : 500 ms
Title : en-Original

Скриншоты


_________________
[Торрент-статистика]
[Профиль]  [ЛС] 

Волк

Пол:

Стаж: 5 лет

Сообщений: 689

Репутация: 292 [+] [-]

Откуда: Армения

Пост 17-Ноя-2013 16:13 (спустя 27 минут)

[Цитировать] 

жаль что нет второво сезона приятный фильм!!!
[Торрент-статистика]
[Профиль]  [ЛС] 

awk05 ®

Пол:

Стаж: 4 года 5 месяцев

Сообщений: 1352

Репутация: 275 [+] [-]

Откуда: Западная Украина Ривне

Пост 17-Ноя-2013 22:42 (спустя 6 часов)

[Цитировать] 

сюжет интересный, закрыли наверно из-за того что дорогой проект

_________________
[Торрент-статистика]
[Профиль]  [ЛС] 
Показать сообщения:    
Ответить на тему

Текущее время: Сегодня 06:25

Часовой пояс: GMT + 4



Вы не можете начинать темы
Вы не можете отвечать на сообщения
Вы не можете редактировать свои сообщения
Вы не можете удалять свои сообщения
Вы не можете голосовать в опросах
Вы не можете прикреплять файлы к сообщениям
Вы не можете скачивать файлы