Шпионки / She Spies / Сезон: 2 / Серии: 1-20 (20) (Michael Zinberg) [2003-2004 гг., комедия, PDTVRip] MVO (Fox Life)

Ответить на тему
 
Автор
Сообщение

awk05 ®

Пол:

Стаж: 4 года 5 месяцев

Сообщений: 1352

Репутация: 275 [+] [-]

Откуда: Западная Украина Ривне

Пост 15-Ноя-2013 17:17

[Цитировать] 

--Шпионки / She Spies-- Год выпуска: 2003-2004
Страна: США
Жанр: комедия
Продолжительность: 45 мин
Перевод: Профессиональный многоголосый закадровый(Fox Life)
Русские субтитры: нет--Режиссёр: Michael Zinberg--В ролях: Наташа Хенстридж, Кристен Миллер, Наташия Уильямс, Карлос Джекотт, Джэми Иглхарт, Кемерон Дейдду, Эрик Беттс, Брюс Бокслайтнер, Элль Александр, Донна Пиерони--Описание: Три подруги - Кэйси, Диди и Шэйн - встают перед выбором: продолжать отбывание срока в тюремной камере или работать на ФБР. Девушки выбирают свободу и работу на ФБР. Теперь они – специальные агенты, а точнее супершпионки. Под руководством сотрудника ФБР Джека три подруги берутся за, казалось бы, невыполнимые задания. Но им удается их решить и, естественно, при этом попасть в массу комических ситуаций.--Качество: PDTVRip
Формат: AVI
Видео кодек: XviD
Аудио кодек: MP3
Видео: 576x432 (1.33:1), 25 fps, XviD MPEG-4 ~1214 kbps avg, 0.20 bit/pixel
Аудио Rus: 48 kHz, MPEG Layer 3, 2 ch, ~128.00 kbps avg-- --

MI

General
Complete name : She.Spies_S02_E01_Rane.of.Terror.avi
Format : AVI
Format/Info : Audio Video Interleave
File size : 401 MiB
Duration : 41mn 14s
Overall bit rate mode : Variable
Overall bit rate : 1 358 Kbps
Writing application : VirtualDubMod 1.5.10.2 (build 2540/release)
Writing library : VirtualDubMod build 2540/release
Video
ID : 0
Format : MPEG-4 Visual
Format profile : Advanced Simple@L5
Format settings, BVOP : 2
Format settings, QPel : No
Format settings, GMC : No warppoints
Format settings, Matrix : Default (MPEG)
Muxing mode : Packed bitstream
Codec ID : XVID
Codec ID/Hint : XviD
Duration : 41mn 14s
Bit rate : 1 215 Kbps
Width : 576 pixels
Height : 432 pixels
Display aspect ratio : 4:3
Frame rate : 25.000 fps
Color space : YUV
Chroma subsampling : 4:2:0
Bit depth : 8 bits
Scan type : Progressive
Compression mode : Lossy
Bits/(Pixel*Frame) : 0.195
Stream size : 359 MiB (90%)
Writing library : XviD 1.2.1 (UTC 2008-12-04)
Audio
ID : 1
Format : MPEG Audio
Format version : Version 1
Format profile : Layer 3
Mode : Joint stereo
Mode extension : MS Stereo
Codec ID : 55
Codec ID/Hint : MP3
Duration : 41mn 14s
Bit rate mode : Variable
Bit rate : 128 Kbps
Channel(s) : 2 channels
Sampling rate : 48.0 KHz
Compression mode : Lossy
Stream size : 38.2 MiB (10%)
Alignment : Aligned on interleaves
Interleave, duration : 24 ms (0.60 video frame)
Interleave, preload duration : 548 ms
Writing library : LAME3.90.
Encoding settings : -m j -V 4 -q 2 -lowpass 17.6 --abr 128

Список серий

Rane of Terror
Last Man Standing
Manhunt
Gone Bad
Date to Mate
Crossed Out
Cover Me
Love Kills
Off with Her Head
Message from Kassar
Spies Gone Wild
White Chollima
Leotards and Lies
Family Reunion
The Gift
London Calling
Stranded
Witness Protection
Wedding of the Century
Remember When

Скриншоты


_________________
[Торрент-статистика]
[Профиль]  [ЛС] 
Показать сообщения:    
Ответить на тему

Текущее время: Сегодня 04:18

Часовой пояс: GMT + 4



Вы не можете начинать темы
Вы не можете отвечать на сообщения
Вы не можете редактировать свои сообщения
Вы не можете удалять свои сообщения
Вы не можете голосовать в опросах
Вы не можете прикреплять файлы к сообщениям
Вы не можете скачивать файлы