Шпионки / She Spies / Сезон: 1 / Серии: 1-20 (20) (Michael Zinberg) [2002-2003 гг., комедия, DVDRip] MVO (Fox Life)

Ответить на тему
 
Автор
Сообщение

awk05 ®

Пол:

Стаж: 4 года 5 месяцев

Сообщений: 1352

Репутация: 275 [+] [-]

Откуда: Западная Украина Ривне

Пост 15-Ноя-2013 17:10

[Цитировать] 

--Шпионки / She Spies-- Год выпуска: 2002 - 2003
Страна: США
Жанр: комедия
Продолжительность: 45 мин
Перевод: Профессиональный многоголосый закадровый(Fox Life)
Русские субтитры: нет--Режиссёр: Michael Zinberg--В ролях:Наташа Хенстридж, Кристен Миллер, Наташия Уильямс, Карлос Джекотт, Джэми Иглхарт, Кемерон Дейдду, Эрик Беттс, Брюс Бокслайтнер, Элль Александр, Донна Пиерони--Описание: Три подруги - Кэйси, Диди и Шэйн - встают перед выбором: продолжать отбывание срока в тюремной камере или работать на ФБР. Девушки выбирают свободу и работу на ФБР. Теперь они – специальные агенты, а точнее супершпионки. Под руководством сотрудника ФБР Джека три подруги берутся за, казалось бы, невыполнимые задания. Но им удается их решить и, естественно, при этом попасть в массу комических ситуаций.-Качество: DVDRip
Формат: AVI
Видео кодек: XviD
Аудио кодек: MP3
Видео: 640x480 (1.33:1), 23.976 fps, XviD build 41 ~1234 kbps avg, 0.17 bit/pixel
Аудио Rus: 48 kHz, MPEG Layer 3, 2 ch, ~128.00 kbps avg
Аудио Eng: 48 kHz, MPEG Layer 3, 2 ch, ~128.00 kbps avg-- --

MI

General
Complete name : She.Spies_S01_E01_Pilot.avi
Format : AVI
Format/Info : Audio Video Interleave
File size : 463 MiB
Duration : 43mn 10s
Overall bit rate : 1 498 Kbps
Writing application : VirtualDubMod 1.5.10.2 (build 2542/release)
Writing library : VirtualDubMod build 2542/release
Video
ID : 0
Format : MPEG-4 Visual
Format profile : Advanced Simple@L5
Format settings, BVOP : 3
Format settings, QPel : No
Format settings, GMC : No warppoints
Format settings, Matrix : Custom
Codec ID : XVID
Codec ID/Hint : XviD
Duration : 43mn 10s
Bit rate : 1 228 Kbps
Width : 640 pixels
Height : 480 pixels
Display aspect ratio : 4:3
Frame rate : 23.976 fps
Color space : YUV
Chroma subsampling : 4:2:0
Bit depth : 8 bits
Scan type : Progressive
Compression mode : Lossy
Bits/(Pixel*Frame) : 0.167
Stream size : 379 MiB (82%)
Writing library : XviD 1.1.0 (UTC 2005-11-22)
Audio #1
ID : 1
Format : MPEG Audio
Format version : Version 1
Format profile : Layer 3
Mode : Joint stereo
Mode extension : MS Stereo
Codec ID : 55
Codec ID/Hint : MP3
Duration : 43mn 10s
Bit rate mode : Constant
Bit rate : 128 Kbps
Channel(s) : 2 channels
Sampling rate : 48.0 KHz
Compression mode : Lossy
Stream size : 39.5 MiB (9%)
Alignment : Aligned on interleaves
Interleave, duration : 42 ms (1.00 video frame)
Interleave, preload duration : 504 ms
Audio #2
ID : 2
Format : MPEG Audio
Format version : Version 1
Format profile : Layer 3
Mode : Joint stereo
Mode extension : MS Stereo
Codec ID : 55
Codec ID/Hint : MP3
Duration : 43mn 10s
Bit rate mode : Constant
Bit rate : 128 Kbps
Channel(s) : 2 channels
Sampling rate : 48.0 KHz
Compression mode : Lossy
Stream size : 39.5 MiB (9%)
Alignment : Split accross interleaves
Interleave, duration : 42 ms (1.00 video frame)
Interleave, preload duration : 500 ms
Writing library : LAME3.98 (alpha)

Список серий

First Episode
The Martini Shot
Poster Girl
Daddy's Girl
Fondles
Ice Man
Three Women and a Baby
Trap
Spies vs. Spy
Perilyzed
Betrayal
The Girl With the Broken Heart
You Don't Know Jack
First Date
While You Were Out
Daze of Future Past
The Replacement
Damsels in De-Stress
Learning to Fly
We'll Be Right Back

Скриншоты


_________________
[Торрент-статистика]
[Профиль]  [ЛС] 
Показать сообщения:    
Ответить на тему

Текущее время: Сегодня 18:17

Часовой пояс: GMT + 4



Вы не можете начинать темы
Вы не можете отвечать на сообщения
Вы не можете редактировать свои сообщения
Вы не можете удалять свои сообщения
Вы не можете голосовать в опросах
Вы не можете прикреплять файлы к сообщениям
Вы не можете скачивать файлы