Пуаро Агаты Кристи / Agatha Christie's Poirot / Сезон 13 / Серии 1-5 из 5 (Джон Стрикленд / John Strickland) [2013 г., Детектив, драма, HDTVRip] (ТВЦ)

Ответить на тему
 
Автор
Сообщение

3232fox ®

Пол:

Стаж: 3 года 9 месяцев

Сообщений: 614

Репутация: 423 [+] [-]

Откуда: Крым,Россия

Пост 07-Ноя-2013 21:17

[Цитировать] 

-Пуаро Агаты Кристи / Agatha Christie's Poirot --Год выпуска: 2013
Страна: Великобритания
Жанр: Детектив, драма
Продолжительность: ~ 01 час 30 мин
Субтитры: Русские, английские
Перевод: Профессиональный (многоголосый, закадровый) (канал ТВЦ, Студия "Лексикон")--Режиссер: Джон Стрикленд / John Strickland--В ролях: Дэвид Суше (David Suchet), Зои Уонамейкер (Zoe Wanamaker), Адриан Лукис (Adrian Lukis), Грета Скакки (Greta Scacchi), Аннабель Маллион (Annabel Mullion), Фердинанд Кингсли (Ferdinand Kingsley), Иэн Глен (Iain Glen), Ванесса Кирби (Vanessa Kirby)
--Описание: Финальный сезон сериала по одноимённому циклу детективных романов Агаты Кристи о бельгийском детективе Эркюле Пуаро.--Тип релиза: HDTVRip
Контейнер: MKV
Видео кодек: H264 (AVC)
Аудио кодек: AC3 (Dolby Digital)
Видео: MPEG-4 AVC,(16:9) ~ 2285 Кбит/с, 1280x720
Аудио: 44.1 kHz, 2 ch, 192 Kbps

Скриншоты

MI

General
UniqueID : 168348648403719580577546155723716462494 (0x7EA6C532C2870C1E037BA147C20E879E)
Complete name : G:\видео\PoirotS13\agatha.christies.poirot.s13e05.720p.hdtv.x264.mkv
Format : Matroska
File size : 1.69 GiB
Duration : 1h 30mn
Overall bit rate : 2 693 Kbps
Writing application : Lavf51.12.1
Writing library : Lavf51.12.1
Video
ID : 1
Format : AVC
Format/Info : Advanced Video Codec
Format profile : Baseline@L3.1
Format settings, CABAC : No
Format settings, ReFrames : 1 frame
Codec ID : V_MPEG4/ISO/AVC
Duration : 1h 30mn
Bit rate : 2 447 Kbps
Width : 1 280 pixels
Height : 720 pixels
Display aspect ratio : 16:9
Frame rate mode : Variable
Frame rate : 25.000 fps
Color space : YUV
Chroma subsampling : 4:2:0
Bit depth : 8 bits
Scan type : Progressive
Bits/(Pixel*Frame) : 0.106
Stream size : 1.54 GiB (91%)
Language : English
Audio
ID : 2
Format : AC-3
Format/Info : Audio Coding 3
Mode extension : CM (complete main)
Codec ID : A_AC3
Duration : 1h 30mn
Bit rate mode : Constant
Bit rate : 192 Kbps
Channel(s) : 2 channels
Channel positions : Front: L R
Sampling rate : 44.1 KHz
Bit depth : 16 bits
Compression mode : Lossy
Stream size : 124 MiB (7%)
Language : English / Russian


Последний раз редактировалось: 3232fox (2014-01-13 15:50), всего редактировалось 7 раз(а)
[Торрент-статистика]
[Профиль]  [ЛС] 

3232fox ®

Пол:

Стаж: 3 года 9 месяцев

Сообщений: 614

Репутация: 423 [+] [-]

Откуда: Крым,Россия

Пост 21-Ноя-2013 12:02 (спустя 13 дней)

[Цитировать] 

Добавлена 4 серия
[Торрент-статистика]
[Профиль]  [ЛС] 

3232fox ®

Пол:

Стаж: 3 года 9 месяцев

Сообщений: 614

Репутация: 423 [+] [-]

Откуда: Крым,Россия

Пост 21-Ноя-2013 12:16 (спустя 13 минут)

[Цитировать] 

Временная проблела, рип будет заменён на другой,причина мёртвая сылка
Все в порядке,исправлено
[Торрент-статистика]
[Профиль]  [ЛС] 

ArtZak

Пол:

Стаж: 5 лет 1 месяц

Сообщений: 3008

Репутация: 1363 [+] [-]

Откуда: Россия

Пост 21-Ноя-2013 16:37 (спустя 4 часа)

[Цитировать] 

3232fox, проверено ab
[Торрент-статистика]
[Профиль]  [ЛС] 

alsbrix

Стаж: 2 года 11 месяцев

Сообщений: 1

Репутация: 0 [+] [-]

Пост 04-Янв-2014 10:38 (спустя 1 месяц 12 дней)

[Цитировать] 

Спасибо за раздачу! А когда будет пятая серия?
[Торрент-статистика]
[Профиль]  [ЛС] 

3232fox ®

Пол:

Стаж: 3 года 9 месяцев

Сообщений: 614

Репутация: 423 [+] [-]

Откуда: Крым,Россия

Пост 04-Янв-2014 11:19 (спустя 41 минута)

[Цитировать] 

40581Спасибо за раздачу! А когда будет пятая серия?
Пока тишина,пока есть без перевода .
[Торрент-статистика]
[Профиль]  [ЛС] 

3232fox ®

Пол:

Стаж: 3 года 9 месяцев

Сообщений: 614

Репутация: 423 [+] [-]

Откуда: Крым,Россия

Пост 13-Янв-2014 15:52 (спустя 9 дней)

[Цитировать] 

Конец
[Торрент-статистика]
[Профиль]  [ЛС] 
Показать сообщения:    
Ответить на тему

Текущее время: Сегодня 22:21

Часовой пояс: GMT + 4



Вы не можете начинать темы
Вы не можете отвечать на сообщения
Вы не можете редактировать свои сообщения
Вы не можете удалять свои сообщения
Вы не можете голосовать в опросах
Вы не можете прикреплять файлы к сообщениям
Вы не можете скачивать файлы