Царство / Reign / Сезон: 1 / Серии 1-15 (22) (Мэттью Хатингс, Брэд Силберлинг) [2013 г., фэнтези, драма, WEB-DLRip] (SDI Медиа)

Ответить на тему
 
Автор
Сообщение

alien.09 ®

Пол:

Стаж: 3 года 10 месяцев

Сообщений: 752

Репутация: 553 [+] [-]

Пост 05-Ноя-2013 22:30

[Цитировать] 

--Царство / Reign--Год выпуска: 2013-2014
Страна: США
Жанр: фэнтези, драма
Продолжительность: ~ 00:42:00 серия
Перевод: Профессиональный (многоголосый, закадровый) SDI Медиа-Режиссер: Мэттью Хатингс, Брэд Силберлинг-В ролях: Аделаида Кэйн, Тоби Регбо, Торранс Кумбс, Меган Фоллоуз, Алан Ван Спрэнг, Селина Синден, Кэйтлин Стэйси, Анна Попплуэлл, Дженесса Грант, Марк Балдесарра-Описание: Сериал рассказывает о ранее неизвестной истории про Марию Стюарт, о том как она приезжает во Францию с 15-летним мальчиком, и как она приходит к власти. Это тайная история о выживании при французском дворе на фоне врагов, темных сил и мире сексуальных интриг...-- --Тип релиза: WEB-DLRip
Контейнер: AVI
Видео кодек: XVID
Аудио кодек: AC-3
Видео: MPEG-4 Visual at 2000 Кбит/сек, 720 x 400 (1.800) at 23.976 fps
Аудио: #1 русский, AC-3 at 384 Кбит/сек, 6 каналов, 48,0 КГц
Аудио: #2 английский, AC-3 at 384 Кбит/сек, 6 каналов, 48,0 КГц
Субтитры: нет

Список серий

01: Pilot
02: Snakes in the Garden
03: Kissed
04: Hearts And Minds
05: A Chill In The.Air
06: Chosen
07: Left Behind
08:
09:
10:
11:
12:
13:

MI Report

Общее
Полное имя : G:\Reign Season 1 CasStudio.TV\Reign.s01e11.rus.eng.CasStudio.TV.avi
Формат : AVI
Формат/Информация : Audio Video Interleave
Размер файла : 843 Мбайт
Продолжительность : 42 м.
Общий поток : 2783 Кбит/сек
Программа кодирования : VirtualDubModRus 1.5.10.2 (build 2542/release)
Библиотека кодирования : VirtualDubMod build 2542/release
Видео
Идентификатор : 0
Формат : MPEG-4 Visual
Профиль формата : Advanced Simple@L5
Параметр BVOP формата : 1
Параметр QPel формата : Нет
Параметр GMC формата : Без точки перехода
Параметр матрицы формата : Default (MPEG)
Идентификатор кодека : XVID
Идентификатор кодека/Подсказка : XviD
Продолжительность : 42 м.
Битрейт : 2001 Кбит/сек
Ширина : 720 пикселей
Высота : 400 пикселей
Соотношение сторон : 16:9
Частота кадров : 23,976 кадра/сек
Цветовое пространство : YUV
Субдискретизация насыщенности : 4:2:0
Битовая глубина : 8 бит
Тип развёртки : Прогрессивная
Метод сжатия : С потерями
Бит/(Пиксели*Кадры) : 0.290
Размер потока : 606 Мбайт (72%)
Библиотека кодирования : XviD 1.2.1 (UTC 2008-12-04)
Аудио #1
Идентификатор : 1
Формат : AC-3
Формат/Информация : Audio Coding 3
Расширение режима : CM (complete main)
Параметр Endianness формата : Big
Идентификатор кодека : 2000
Продолжительность : 42 м.
Вид битрейта : Постоянный
Битрейт : 384 Кбит/сек
Каналы : 6 каналов
Расположение каналов : Front: L C R, Side: L R, LFE
Частота : 48,0 КГц
Битовая глубина : 16 бит
Метод сжатия : С потерями
Размер потока : 116 Мбайт (14%)
Выравнивание : Разделение по промежуткам
Продолжительность промежутка : 42 мс. (1,00 видеокадр)
Время предзагрузки промежутка : 500 мс.
Аудио #2
Идентификатор : 2
Формат : AC-3
Формат/Информация : Audio Coding 3
Расширение режима : CM (complete main)
Параметр Endianness формата : Big
Идентификатор кодека : 2000
Продолжительность : 42 м.
Вид битрейта : Постоянный
Битрейт : 384 Кбит/сек
Каналы : 6 каналов
Расположение каналов : Front: L C R, Side: L R, LFE
Частота : 48,0 КГц
Битовая глубина : 16 бит
Метод сжатия : С потерями
Размер потока : 116 Мбайт (14%)
Выравнивание : Разделение по промежуткам
Продолжительность промежутка : 42 мс. (1,00 видеокадр)
Время предзагрузки промежутка : 500 мс.

Скриншоты




Внимание! Раздача ведётся путём добавления новых серий

При каждом добавлении создаётся новый торрент. Чтобы начать докачку новой серии, пользователям необходимо сделать следующее:
  • Остановить скачивание,
  • Удалить старый торрент у себя из клиента (старые серии удалять не надо),
  • Скачать новый торрент и запустить его у себя в клиенте вместо старого, при этом указать клиенту путь в старую папку куда и должно происходить скачивание новых серий.
Ваш клиент при этом должен произвести хеширование (проверку) старой папки (если не производит сам - помогите ему сделать это), и будет докачивать только те серии которых у вас ещё нет. Старые серии при этом не удаляются, а продолжают раздаваться!
Если вы уже удалили старые серии, то предотвратить повторную закачку старых серий можно, отжав галочку в соответствующих местах при запуске нового торрента. По возможности, желательно не удалять старые серии как можно дольше чтобы релизёр не столько продолжал раздавать старые серии, а смог сконцентрироваться на новых.

_________________
Правообладатели, убейтесь об эту надпись.


Последний раз редактировалось: alien.09 (2014-03-28 22:57), всего редактировалось 6 раз(а)
[Торрент-статистика]
[Профиль]  [ЛС] 

Kaira9090

Стаж: 4 года 3 месяца

Сообщений: 1

Репутация: 0 [+] [-]

Пост 23-Ноя-2013 19:22 (спустя 17 дней)

[Цитировать] 

Раздайте!
[Торрент-статистика]
[Профиль]  [ЛС] 

alien.09 ®

Пол:

Стаж: 3 года 10 месяцев

Сообщений: 752

Репутация: 553 [+] [-]

Пост 23-Ноя-2013 19:35 (спустя 13 минут)

[Цитировать] 

Kaira9090,
на раздаче.-к утру добавлю ещё серии.
не, не добавлю...

_________________
Правообладатели, убейтесь об эту надпись.
[Торрент-статистика]
[Профиль]  [ЛС] 

alien.09 ®

Пол:

Стаж: 3 года 10 месяцев

Сообщений: 752

Репутация: 553 [+] [-]

Пост 24-Ноя-2013 23:59 (спустя 1 день 4 часа)

[Цитировать] 

изменил размер, добавил 4-6 серии

_________________
Правообладатели, убейтесь об эту надпись.
[Торрент-статистика]
[Профиль]  [ЛС] 

nova1980

Пол:

Стаж: 5 лет 3 месяца

Сообщений: 819

Репутация: 523 [+] [-]

Откуда: Одесса Мама

Пост 24-Ноя-2013 23:59 (спустя 32 секунды)

[Цитировать] 

38171
./Царство сезон 01
Царство с01 ч01 пилот.avi 476.40 MB (499541658)
Царство с01 ч02.avi 444.20 MB (465785330)
Царство с01 ч03.avi 481.05 MB (504420818)
Царство с01 ч04.avi 475.10 MB (498178464)
Царство с01 ч05.avi 483.62 MB (507118714)
Царство с01 ч06.avi 453.49 MB (475522208)
Серий ты написал 3, а тут, как я понимаю, 6 частей а не серий?

_________________
Мои Раздачи
[Торрент-статистика]
[Профиль]  [ЛС] 

alien.09 ®

Пол:

Стаж: 3 года 10 месяцев

Сообщений: 752

Репутация: 553 [+] [-]

Пост 25-Ноя-2013 00:13 (спустя 14 минут)

[Цитировать] 

nova1980,
Царство с01 см. (сезон 01), ч01 см. (серия 01)
в чём разница между серией и частью?

_________________
Правообладатели, убейтесь об эту надпись.
[Торрент-статистика]
[Профиль]  [ЛС] 

nova1980

Пол:

Стаж: 5 лет 3 месяца

Сообщений: 819

Репутация: 523 [+] [-]

Откуда: Одесса Мама

Пост 25-Ноя-2013 00:18 (спустя 4 минуты)

[Цитировать] 

alien.09, Иногда я встречал что серия состоит из несколько частей, поэтому и уточняю....

_________________
Мои Раздачи
[Торрент-статистика]
[Профиль]  [ЛС] 

alien.09 ®

Пол:

Стаж: 3 года 10 месяцев

Сообщений: 752

Репутация: 553 [+] [-]

Пост 25-Ноя-2013 00:29 (спустя 11 минут)

[Цитировать] 

nova1980, понял. в заголовках исправил, при редактировании тупо забыл.

_________________
Правообладатели, убейтесь об эту надпись.
[Торрент-статистика]
[Профиль]  [ЛС] 

nova1980

Пол:

Стаж: 5 лет 3 месяца

Сообщений: 819

Репутация: 523 [+] [-]

Откуда: Одесса Мама

Пост 25-Ноя-2013 00:35 (спустя 6 минут)

[Цитировать] 

alien.09, У всех бывает bk

_________________
Мои Раздачи
[Торрент-статистика]
[Профиль]  [ЛС] 

alien.09 ®

Пол:

Стаж: 3 года 10 месяцев

Сообщений: 752

Репутация: 553 [+] [-]

Пост 11-Фев-2014 01:18 (спустя 2 месяца 16 дней)

[Цитировать] 

добавлены серии 07-11

_________________
Правообладатели, убейтесь об эту надпись.
[Торрент-статистика]
[Профиль]  [ЛС] 

alien.09 ®

Пол:

Стаж: 3 года 10 месяцев

Сообщений: 752

Репутация: 553 [+] [-]

Пост 28-Мар-2014 22:58 (спустя 1 месяц 17 дней)

[Цитировать] 

добавлены серии 12-15

_________________
Правообладатели, убейтесь об эту надпись.
[Торрент-статистика]
[Профиль]  [ЛС] 
Показать сообщения:    
Ответить на тему

Текущее время: Сегодня 15:15

Часовой пояс: GMT + 4



Вы не можете начинать темы
Вы не можете отвечать на сообщения
Вы не можете редактировать свои сообщения
Вы не можете удалять свои сообщения
Вы не можете голосовать в опросах
Вы не можете прикреплять файлы к сообщениям
Вы не можете скачивать файлы