Живая мишень / Human Target /Сезон: 2 / Серии 1-13 из 13) (Саймон Вест) [2010, Драма, боевик, WEB-DLRip] (LostFilm)

Ответить на тему
 
Автор
Сообщение

awk05 ®

Пол:

Стаж: 4 года 5 месяцев

Сообщений: 1352

Репутация: 275 [+] [-]

Откуда: Западная Украина Ривне

Пост 31-Окт-2013 16:21

[Цитировать] 

-Живая мишень / Human Target-
Год выпуска: 2010
Страна: США
Жанр: Драма, боевик
Продолжительность: 00:43:05
Перевод: Профессиональный (многоголосый, закадровый) (LostFilm)
Русские субтитры: нет-Режиссёр: Саймон Вест-В ролях: Марк Велли, Чай МакБрайд, Джекки Эрли Хэли-Описание: Его зовут Кристофер Ченс и самое важное для него – спасти жизнь своего клиента. Когда угрозу убийства невозможно предотвратить по-другому, Ченс полностью становится ходячей мишенью для убийцы, вживаясь в роль клиента. К примеру, если начальнику корпорации угрожает уволенный подчиненный, Ченс становится аудитором корпорации. А если президента банка известили о намечающейся краже, Ченс станет банковским служащим. В таком сложном деле Кристоферу не обойтись без помощи, а помогают ему его бизнес-партнер Уинстон и фрилансер Герреро. В каждом деле Кристофер подставляет свою жизнь опасности, пытаясь спасти клиента. Во время каждого дела нам понемногу расскажут и о самом Ченсе. Кто он? Что заставляет его каждый раз рисковать собственной шкурой?-Сэмпл / ImDB / Кинопоиск-Качество: WEB-DLRip
Формат: AVI
Видео кодек: XviD
Аудио кодек: MP3
Видео: 704x400 (1.76:1), 23.976 fps, XviD build 50, 1162 kbps avg, 0.17 bit/pixel.
Аудио: 48 kHz, MPEG Layer 3, 2 ch, 202.94 kbps avg.-Релиз:
Перевод: Caranemica.
Редактор: Relicit.
Озвучка: Студия "Кравец".

MI

Код:
General
Complete name : Human Target s02 LostFilm.TV\Human.Target.s02e01.rus.LostFilm.TV.avi
Format : AVI
Format/Info : Audio Video Interleave
File size : 425 MiB
Duration : 43mn 5s
Overall bit rate : 1 379 Kbps
Writing application : Nandub v1.0rc2
Writing library : Nandub build 1853/release
Video
ID : 0
Format : MPEG-4 Visual
Format profile : Advanced Simple@L5
Format settings, BVOP : Yes
Format settings, QPel : No
Format settings, GMC : No warppoints
Format settings, Matrix : Custom
Codec ID : XVID
Codec ID/Hint : XviD
Duration : 43mn 5s
Bit rate : 1 163 Kbps
Width : 704 pixels
Height : 400 pixels
Display aspect ratio : 16:9
Frame rate : 23.976 fps
Resolution : 8 bits
Colorimetry : 4:2:0
Scan type : Progressive
Bits/(Pixel*Frame) : 0.172
Stream size : 359 MiB (84%)
Writing library : XviD 1.2.1 (UTC 2008-12-04)
Audio
ID : 1
Format : MPEG Audio
Format version : Version 1
Format profile : Layer 3
Mode : Joint stereo
Format_Settings_ModeExtension : MS Stereo
Codec ID : 55
Codec ID/Hint : MP3
Duration : 43mn 5s
Bit rate mode : Variable
Bit rate : 203 Kbps
Nominal bit rate : 194 Kbps
Channel(s) : 2 channels
Sampling rate : 48.0 KHz
Stream size : 62.6 MiB (15%)
Alignment : Aligned on interleaves
Interleave, duration : 24 ms (0.58 video frame)
Interleave, preload duration : 457 ms
Writing library : LAME3.90.
Encoding settings : -m j -V 4 -q 2 -lowpass 19.6 --abr 194

Скриншоты

Даты выхода серий в США

13 – 09.02.2011 Marshall Pucci (Маршалл Пуччи)
12 – 02.02.2011 The Trouble with Harry (Неприятности с Гарри)
11 – 31.01.2011 Kill Bob (Убить Боба)
10 – 12.01.2011 Cool Hand Guerrero (Хладнокровный Герреро)
09 – 12.01.2011 Imbroglio (Путаница)
08 – 05.01.2011 Communication Breakdown (Обрыв связи)
07 – 05.01.2011 A Problem Like Maria (Проблема по имени Мария)
06 – 22.12.2010 The Other Side of the Mall (Другое крыло)
05 – 15.12.2010 Dead Head (Мертвая голова)
04 – 08.12.2010 The Return of Baptiste (Возвращение Баптиста)
03 – 01.12.2010 Taking Ames (Эймс)
02 – 24.11.2010 The Wife's Tale (История одной жены)
01 – 17.11.2010 Ilsa Pucci (Илса Пуччи)
«СЕЗОН 1» «СЕЗОН 2»

_________________
[Торрент-статистика]
[Профиль]  [ЛС] 
Показать сообщения:    
Ответить на тему

Текущее время: Сегодня 10:50

Часовой пояс: GMT + 4



Вы не можете начинать темы
Вы не можете отвечать на сообщения
Вы не можете редактировать свои сообщения
Вы не можете удалять свои сообщения
Вы не можете голосовать в опросах
Вы не можете прикреплять файлы к сообщениям
Вы не можете скачивать файлы