Живая мишень / Human Target / Сезон: 1 / Серии: 1-12 (12) (Сэнфорд Букставер, Стив Бойум, Кевин Хукс) [2010 г., боевик, драма, приключения, HDRip] Dub (РЕН-ТВ)

Ответить на тему
 
Автор
Сообщение

awk05 ®

Пол:

Стаж: 4 года 5 месяцев

Сообщений: 1352

Репутация: 275 [+] [-]

Откуда: Западная Украина Ривне

Пост 31-Окт-2013 16:08

[Цитировать] 

--Живая мишень / Human Target-- Год выпуска: 2010
Страна: США
Жанр: Боевик, драма, приключения, криминал
Продолжительность: ~ 42 минуты
Перевод: Профессиональный (полное дублирование) - РЕН-ТВ
Субтитры: Нет
Режиссёр: Сэнфорд Букставер, Стив Бойум, Кевин Хукс-В ролях: Марк Вэлли, Чи МакБрайд, Джеки Эрл Хейли, Майк Десабрайс, Адриан Хью, Хиро Канагава, Дэвид Мюнье, Эллисон Уоррен, Artine Brown, Дэнни Гловер и др.-Описание: Только храбрый и самоотверженный человек может стать живой мишенью для того, чтобы спасти жизнь другому. Human Target — основанная на одноименном комиксе экшн-драма, главный герой которой — Кристофер Чэнс, единственный в своем роде частный охранник. Называть его можно как угодно — защитником, охранником или телохранителем, но для Чэнса главное одно — спасти жизнь своего клиента.
Когда угрозу убийства невозможно ликвидировать стандартными методами, Чэнс полностью вливается в жизнь клиента, и становится мишенью для убийцы. Если менеджеру корпорации угрожает уволенный подчиненный, Чэнс становится аудитором корпорации. Если президенту банка сообщили о намечающейся краже, Чэнс станет банковским клерком.-Качество: HDRip
Формат: AVI
Видео кодек: XviD
Аудио кодек: MP3
Видео: 720x400 (16:9), 23.976 fps, ~1350 kbps, ~0.195 bit/pixel
Аудио Rus: 48 kHz, 2 ch, ~128 kbps |РЕН-ТВ|
Аудио Eng: 48 kHz, 2 ch, ~128 kbps |Original|-Релиз:
Озвучка: РЕН-ТВ
Подготовка видео: Baggio
Работа со звуком: Baggio
Постер: Vortex-Сэмпл / ImDB / Кинопоиск-

Список серий

Episode 1: Pilot
Episode 2: Rewind
Episode 3: Embassy Row
Episode 4: Sanctuary
Episode 5: Run
Episode 6: Lockdown
Episode 7: Salvage & Reclamation
Episode 8: Baptiste
Episode 9 : Corner Man
Episode 10: Tanarak
Episode 11: Victoria
Episode 12: Christopher Chance

Скриншоты


MediaInfo

Общее
Полное имя : Human.Target.01e01.BDRip.NewStudio.TV.avi
Формат : AVI
Формат/Информация : Audio Video Interleave
Размер файла : 500 Мбайт
Продолжительность : 43 м.
Общий поток : 1618 Кбит/сек
Программа кодирования : VirtualDubMod 1.5.10.2 (build 2540/release)
Библиотека кодирования : VirtualDubMod build 2540/release
Видео
Идентификатор : 0
Формат : MPEG-4 Visual
Профиль формата : Advanced Simple@L5
Параметр BVOP формата : 2
Параметр QPel формата : Нет
Параметр GMC формата : Без точки перехода
Параметр матрицы формата : Default (MPEG)
Идентификатор кодека : XVID
Идентификатор кодека/Подсказка : XviD
Продолжительность : 43 м.
Битрейт : 1348 Кбит/сек
Ширина : 720 пикс.
Высота : 400 пикс.
Соотношение сторон : 16:9
Частота кадров : 23,976 кадр/сек
Цветовое пространство : YUV
Подвыборка цветности : 4:2:0
Битовая глубина : 8 бит
Тип развёртки : Прогрессивная
Метод сжатия : С потерями
Бит/(Пиксели*Кадры) : 0.195
Размер потока : 417 Мбайт (83%)
Библиотека кодирования : XviD 64
Аудио #1
Идентификатор : 1
Формат : MPEG Audio
Версия формата : Version 1
Профиль формата : Layer 3
Режим : Joint stereo
Расширение режима : MS Stereo
Идентификатор кодека : 55
Идентификатор кодека/Подсказка : MP3
Продолжительность : 43 м.
Вид битрейта : Постоянный
Битрейт : 128 Кбит/сек
Каналы : 2 канала
Частота : 48,0 КГц
Метод сжатия : С потерями
Размер потока : 39,6 Мбайт (8%)
Выравнивание : Соединение по промежуткам
Продолжительность промежутка : 42 мс. (1,00 видеокадр)
Время предзагрузки промежутка : 504 ms
Аудио #2
Идентификатор : 2
Формат : MPEG Audio
Версия формата : Version 1
Профиль формата : Layer 3
Режим : Joint stereo
Расширение режима : MS Stereo
Идентификатор кодека : 55
Идентификатор кодека/Подсказка : MP3
Продолжительность : 43 м.
Вид битрейта : Постоянный
Битрейт : 128 Кбит/сек
Каналы : 2 канала
Частота : 48,0 КГц
Метод сжатия : С потерями
Размер потока : 39,6 Мбайт (8%)
Выравнивание : Соединение по промежуткам
Продолжительность промежутка : 42 мс. (1,00 видеокадр)
Время предзагрузки промежутка : 504 ms
«СЕЗОН 1» «СЕЗОН 2»

_________________
[Торрент-статистика]
[Профиль]  [ЛС] 
Показать сообщения:    
Ответить на тему

Текущее время: Сегодня 20:39

Часовой пояс: GMT + 4



Вы не можете начинать темы
Вы не можете отвечать на сообщения
Вы не можете редактировать свои сообщения
Вы не можете удалять свои сообщения
Вы не можете голосовать в опросах
Вы не можете прикреплять файлы к сообщениям
Вы не можете скачивать файлы