Фабрика / The Mill / Сезон 1/ Серии 1-4 из (4) (Джеймс Хоуз) [2013 г., Историческая драма, WEB-DLRip]

Ответить на тему
 
Автор
Сообщение

3232fox ®

Пол:

Стаж: 3 года 9 месяцев

Сообщений: 614

Репутация: 423 [+] [-]

Откуда: Крым,Россия

Пост 17-Окт-2013 00:42

[Цитировать] 

-Фабрика / The Mill / Сезон 1/ Серии 1-4 из (4)--Год выпуска: 2013
Страна: Великобритания
Жанр: Историческая драма
Продолжительность: ~ 00:47:00
Перевод: Профессиональный (многоголосый, закадровый)- BaibaKo--Режиссер: Джеймс Хоуз--В ролях: Доналд Самптер, Джейми Дравен, Барбара Мартен, Джек Микин, Росилин Энн Саутгейт, Мэтью МакНалти--Описание: От колокола до колокола. Чеширские текстильщицы работают не покладая рук и вынуждены мириться с несправедливостью и постоянными издевательствами беспощадных надзирателей. Пока один из них отлучается из цеха с молодой мастерицей, на фабрике происходит несчастный случай с мальчиком-подмастерьем. Перед женщинами стоит нелёгкий выбор: рассказать всё комиссии, или продолжать терпеть надругательства. Историческая драма основана на фактах из жизни реальных людей, которые только начинали свою жизнь на фабрике Quarry Bank Mill во время промышленной революции 19-го века. Всё это еще в те времена, когда рабочие боролись за уменьшение трудового дня хотя бы до 10 часов, а не 8-ми.--Тип релиза: WEB-DLRip
Контейнер: AVI
Видео кодек: XviD
Аудио кодек: MP3 (MPEG1 Layer 3)
Видео: 720x304 (2.35:1), 25.000 fps, ~1230 kbps, ~0.225 bit/pixel
Аудио: Аудио Rus: 48 kHz, 2 ch, 192 kbps |BaibaKo|--

Скриншоты

MI

General
Complete name : G:\видео\The.Mill.s01.BaibaKo\The.Mill.s01e01.BaibaKo.avi
Format : AVI
Format/Info : Audio Video Interleave
File size : 550 MiB
Duration : 47mn 16s
Overall bit rate : 1 627 Kbps
Writing application : VirtualDubMod 1.5.10.2 (build 2540/release)
Writing library : VirtualDubMod build 2540/release
Video
ID : 0
Format : MPEG-4 Visual
Format profile : Advanced Simple@L5
Format settings, BVOP : Yes
Format settings, QPel : No
Format settings, GMC : No warppoints
Format settings, Matrix : Custom
Codec ID : XVID
Codec ID/Hint : XviD
Duration : 47mn 16s
Bit rate : 1 229 Kbps
Width : 720 pixels
Height : 304 pixels
Display aspect ratio : 2.35:1
Frame rate : 25.000 fps
Color space : YUV
Chroma subsampling : 4:2:0
Bit depth : 8 bits
Scan type : Progressive
Compression mode : Lossy
Bits/(Pixel*Frame) : 0.225
Stream size : 416 MiB (76%)
Writing library : XviD 73
Audio #1
ID : 1
Format : AC-3
Format/Info : Audio Coding 3
Mode extension : CM (complete main)
Codec ID : 2000
Duration : 47mn 16s
Bit rate mode : Constant
Bit rate : 192 Kbps
Channel(s) : 2 channels
Channel positions : Front: L R
Sampling rate : 48.0 KHz
Bit depth : 16 bits
Compression mode : Lossy
Stream size : 64.9 MiB (12%)
Alignment : Split accross interleaves
Interleave, duration : 40 ms (1.00 video frame)
Interleave, preload duration : 500 ms
Audio #2
ID : 2
Format : AC-3
Format/Info : Audio Coding 3
Mode extension : CM (complete main)
Codec ID : 2000
Duration : 47mn 16s
Bit rate mode : Constant
Bit rate : 192 Kbps
Channel(s) : 2 channels
Channel positions : Front: L R
Sampling rate : 48.0 KHz
Bit depth : 16 bits
Compression mode : Lossy
Stream size : 64.9 MiB (12%)
Alignment : Split accross interleaves
Interleave, duration : 40 ms (1.00 video frame)
Interleave, preload duration : 500 ms
[Торрент-статистика]
[Профиль]  [ЛС] 
Показать сообщения:    
Ответить на тему

Текущее время: Сегодня 08:59

Часовой пояс: GMT + 4



Вы не можете начинать темы
Вы не можете отвечать на сообщения
Вы не можете редактировать свои сообщения
Вы не можете удалять свои сообщения
Вы не можете голосовать в опросах
Вы не можете прикреплять файлы к сообщениям
Вы не можете скачивать файлы