Американская история ужасов: Шабаш / American Horror Story: Coven / сезон 3 / Серия 1-13 из (13) (Дэвид Семел, Альфонсо Гомез-Рейон, Майкл Аппендаль, Брэдли Букер, Райан Мерфи) [2013 г., Ужасы, драма, мистика, WEB-DLRip] [LostFilm]

Ответить на тему
 
Автор
Сообщение

3232fox ®

Пол:

Стаж: 3 года 9 месяцев

Сообщений: 614

Репутация: 423 [+] [-]

Откуда: Крым,Россия

Пост 16-Окт-2013 00:33

[Цитировать] 

-Американская история ужасов: Шабаш / American Horror Story: Coven--Год выпуска: 2013
Страна: США
Сезон/серии:Сезон: 3 / серии 13 из 13
Жанр: Ужасы, драма, мистика
Продолжительность:13х ~ 00:48:33
Перевод: Профессиональный (многоголосый) [LostFilm]--Режиссер: Дэвид Семел, Альфонсо Гомез-Рейон, Майкл Аппендаль, Брэдли Букер, Райан Мерфи--В ролях: Джессика Ланж, Эмма Робертс, Дэнис О’Харе, Сара Полсон, Таисса Фармига, Фрэнсис Конрой, Кэти Бейтс, Анджела Бассетт, Дэнис О’Харе--Описание: Третий сезон сериала «Американская история ужасов: Шабаш», расскажет страшную историю о ведьмах и охоте на них. Съемки сериала в настоящий момент идут в Новом Орлеане, где и развернется действие нового сезона. При этом сообщается, что события «Шабаша» будут охватывать разные временные периоды. Основное действие нового сезона будет происходить спустя три столетия после знаменитого Судебного процесса над салемскими ведьмами.-- --Тип релиза: WEB-DLRip
Контейнер: AVI
Видео кодек: XviD
Аудио кодек: MP3 (MPEG1 Layer 3)
Видео: 720x400 (1.80:1), 23.976 fps, XviD MPEG-4 ~1225 kbps, 0.177 Bits/(Pixel*Frame)
Аудио: 48 kHz, MPEG Layer 3, 2 ch, ~192.00 kbps--

Скриншоты

MI

General
Complete name : G:\видео\American.Horror.Story.S03.rus.LostFilm\American.Horror.Story.S03E01.rus.LostFilm.TV.avi
Format : AVI
Format/Info : Audio Video Interleave
File size : 521 MiB
Duration : 49mn 6s
Overall bit rate : 1 484 Kbps
Writing application : Nandub v1.0rc2
Writing library : Nandub build 1853/release
Video
ID : 0
Format : MPEG-4 Visual
Format profile : Simple@L3
Format settings, BVOP : No
Format settings, QPel : No
Format settings, GMC : No warppoints
Format settings, Matrix : Default (H.263)
Codec ID : XVID
Codec ID/Hint : XviD
Duration : 49mn 6s
Bit rate : 1 225 Kbps
Width : 720 pixels
Height : 400 pixels
Display aspect ratio : 16:9
Frame rate : 23.976 fps
Color space : YUV
Chroma subsampling : 4:2:0
Bit depth : 8 bits
Scan type : Progressive
Compression mode : Lossy
Bits/(Pixel*Frame) : 0.177
Stream size : 430 MiB (83%)
Writing library : XviD 1.2.1 (UTC 2008-12-04)
Audio
ID : 1
Format : MPEG Audio
Format version : Version 1
Format profile : Layer 3
Mode : Joint stereo
Mode extension : MS Stereo
Codec ID : 55
Codec ID/Hint : MP3
Duration : 49mn 6s
Bit rate mode : Variable
Bit rate : 192 Kbps
Channel(s) : 2 channels
Sampling rate : 48.0 KHz
Compression mode : Lossy
Stream size : 67.4 MiB (13%)
Alignment : Aligned on interleaves
Writing library : LAME3.97b
Encoding settings : -m j -V 4 -q 3 -lowpass 18.6 --abr 192


Последний раз редактировалось: 3232fox (2014-02-02 15:51), всего редактировалось 16 раз(а)
[Торрент-статистика]
[Профиль]  [ЛС] 

3232fox ®

Пол:

Стаж: 3 года 9 месяцев

Сообщений: 614

Репутация: 423 [+] [-]

Откуда: Крым,Россия

Пост 22-Окт-2013 21:55 (спустя 6 дней)

[Цитировать] 

Добавлена 9 серия


Последний раз редактировалось: 3232fox (2013-12-15 01:06), всего редактировалось 2 раз(а)
[Торрент-статистика]
[Профиль]  [ЛС] 

3232fox ®

Пол:

Стаж: 3 года 9 месяцев

Сообщений: 614

Репутация: 423 [+] [-]

Откуда: Крым,Россия

Пост 27-Ноя-2013 02:40 (спустя 1 месяц 4 дня)

[Цитировать] 

Надо-бы прикрыть от гугла,банят этот сериал,авторские права
[Торрент-статистика]
[Профиль]  [ЛС] 

alien.09

Пол:

Стаж: 3 года 8 месяцев

Сообщений: 749

Репутация: 553 [+] [-]

Пост 27-Ноя-2013 02:55 (спустя 14 минут)

[Цитировать] 

3232fox,
тут пока не тронут

_________________
Правообладатели, убейтесь об эту надпись.
[Торрент-статистика]
[Профиль]  [ЛС] 

3232fox ®

Пол:

Стаж: 3 года 9 месяцев

Сообщений: 614

Репутация: 423 [+] [-]

Откуда: Крым,Россия

Пост 12-Янв-2014 21:35 (спустя 1 месяц 15 дней)

[Цитировать] 

конец
[Торрент-статистика]
[Профиль]  [ЛС] 
Показать сообщения:    
Ответить на тему

Текущее время: Сегодня 22:20

Часовой пояс: GMT + 4



Вы не можете начинать темы
Вы не можете отвечать на сообщения
Вы не можете редактировать свои сообщения
Вы не можете удалять свои сообщения
Вы не можете голосовать в опросах
Вы не можете прикреплять файлы к сообщениям
Вы не можете скачивать файлы