Американская История Ужасов: Убежище / American Horror Story: Asylum/ 2 сезон /серия 1-13 из(13) (Дэвид Семел, Альфонсо Гомез-Рейон, Майкл Аппендаль, Брэдли Букер, Райан Мерфи) [2012 г., Драма, Ужасы, Триллер, WEB-DLRip]

Ответить на тему
 
Автор
Сообщение

3232fox ®

Пол:

Стаж: 3 года 8 месяцев

Сообщений: 614

Репутация: 423 [+] [-]

Откуда: Крым,Россия

Пост 16-Окт-2013 00:17

[Цитировать] 

--Американская История Ужасов: Убежище / American Horror Story: Asylum/ 2 сезон /серия 1-13 из(13)--Год выпуска: 2012
Страна: США
Жанр: Драма, Ужасы, Триллер
Продолжительность: ~ 00:45:00
Перевод: Профессиональный (многоголосый, закадровый) (LostFilm)--Режиссер: Дэвид Семел, Альфонсо Гомез-Рейон, Майкл Аппендаль, Брэдли Букер, Райан Мерфи--В ролях: Конни Бриттон, Джэми Харрис, Кристиан Серратос, Джессика Лэнг, Александра Брекенридж, Дилан МакДермотт, Дэнис О’Харе, Ивэн Питерс, Фрэнсис Конрой, Таисса Фармига--Описание: Второй сезон познакомит нас с героями психиатрической больницы для преступников. Действие происходит в шестидесятых годах. Создатели шоу назвали второй сезон «Убежище», подразумевая, что больница – это пристанище для ненужных людей. Что скрывает больница? Каким образом «лечат» больных?--
Тип релиза: WEB-DLRip
Контейнер: AVI
Видео кодек: XviD
Аудио кодек: MP3 (MPEG1 Layer 3)
Видео: 624x352 (16/9), 23.976 fps, 1 008 Kbps (0.191 bit/pixel)
Аудио: Аудио: 48.0 KHz, 2 ch, 128 Kbp--

Скриншоты

MI

General
Complete name : G:\видео\Американская история ужасов Сезон 2 (LostFilm)\American.Horror.Story.S02E01.rus.LostFilm.avi
Format : AVI
Format/Info : Audio Video Interleave
File size : 422 MiB
Duration : 46mn 9s
Overall bit rate : 1 278 Kbps
Writing application : VirtualDubMod 1.5.10.3 | www.virtualdub-fr.org || (build 2550/release)
Writing library : VirtualDubMod build 2550/release
Video
ID : 0
Format : MPEG-4 Visual
Format profile : Advanced Simple@L5
Format settings, BVOP : Yes
Format settings, QPel : No
Format settings, GMC : No warppoints
Format settings, Matrix : Default (H.263)
Codec ID : XVID
Codec ID/Hint : XviD
Duration : 46mn 9s
Bit rate : 1 008 Kbps
Width : 624 pixels
Height : 352 pixels
Display aspect ratio : 16:9
Frame rate : 23.976 fps
Color space : YUV
Chroma subsampling : 4:2:0
Bit depth : 8 bits
Scan type : Progressive
Compression mode : Lossy
Bits/(Pixel*Frame) : 0.191
Stream size : 333 MiB (79%)
Writing library : XviD 65
Audio #1
ID : 1
Format : MPEG Audio
Codec ID : 55
Codec ID/Hint : MP3
Duration : 46mn 9s
Bit rate : 128 Kbps
Channel(s) : 2 channels
Sampling rate : 48.0 KHz
Compression mode : Lossy
Stream size : 42.3 MiB (10%)
Alignment : Split accross interleaves
Interleave, duration : 42 ms (1.00 video frame)
Interleave, preload duration : 504 ms
Audio #2
ID : 2
Format : MPEG Audio
Format version : Version 1
Format profile : Layer 3
Mode : Joint stereo
Mode extension : MS Stereo
Codec ID : 55
Codec ID/Hint : MP3
Duration : 46mn 9s
Bit rate mode : Constant
Bit rate : 128 Kbps
Channel(s) : 2 channels
Sampling rate : 48.0 KHz
Compression mode : Lossy
Stream size : 42.3 MiB (10%)
Alignment : Aligned on interleaves
Interleave, duration : 42 ms (1.00 video frame)
Interleave, preload duration : 504 ms
Writing library : LAME3.98r
Encoding settings : -m j -V 4 -q 0 -lowpass 17 -b 128
[Торрент-статистика]
[Профиль]  [ЛС] 
Показать сообщения:    
Ответить на тему

Текущее время: Сегодня 08:38

Часовой пояс: GMT + 4



Вы не можете начинать темы
Вы не можете отвечать на сообщения
Вы не можете редактировать свои сообщения
Вы не можете удалять свои сообщения
Вы не можете голосовать в опросах
Вы не можете прикреплять файлы к сообщениям
Вы не можете скачивать файлы