Американская история ужасов / American Horror Story /Сезон 1/ Серия 1-12 из(12) (Дэвид Семел, Альфонсо Гомез-Рейон, Майкл Аппендаль, Брэдли Букер, Райан Мерфи) [2011 г., Триллер, Ужасы, Драма, WEB-DlRip]

Ответить на тему
 
Автор
Сообщение

3232fox ®

Пол:

Стаж: 3 года 9 месяцев

Сообщений: 614

Репутация: 423 [+] [-]

Откуда: Крым,Россия

Пост 15-Окт-2013 23:59

[Цитировать] 

-Американская история ужасов / American Horror Story /Сезон 1/ Серия 1-12 из(12)--Год выпуска: 2011
Страна: США
Жанр: Триллер, Ужасы, Драма
Продолжительность: 00:42:40
Перевод: Профессиональный (многоголосый, закадровый)(LostFilm)--Режиссер: Дэвид Семел, Альфонсо Гомез-Рейон, Майкл Аппендаль, Брэдли Букер, Райан Мерфи--В ролях: Конни Бриттон, Дилан МакДермотт, Таисса Фармига, Эван Питерс, Фрэнсис Конрой, Джессика Лэнг, Александра Брекенридж, Дэнис О`Харе, Шелби Янг, Лили Рэйб, Закари Куинто--Описание: Психологический триллер, в центре сюжета которого терапевт и его жена, которые переживают не самый лучший этап в их супружеской жизни. Вместе с ребёнком они переезжают в новый дом, который, как кажется, знает все их страхи и играет на них.--
Тип релиза: WEB-DlRip
Контейнер: AVI
Видео кодек: XviD
Аудио кодек: MP3 (MPEG1 Layer 3)
Видео: 720*400 (1.80), 23.976 fps, XviD MPEG-4, ~1485 kbps, 0.22 bit/pixel
Аудио: 48 kHz, MPEG Layer 3, 2 ch, ~192 kbps--

Скриншоты

MI

General
Complete name : G:\видео\American.Horror.Story.s01.LostFilm\American.Horror.Story.S01E01.rus.LostFilm.TV.avi
Format : AVI
Format/Info : Audio Video Interleave
File size : 625 MiB
Duration : 51mn 46s
Overall bit rate : 1 689 Kbps
Writing application : Nandub v1.0rc2
Writing library : Nandub build 1853/release
Video
ID : 0
Format : MPEG-4 Visual
Format profile : Simple@L3
Format settings, BVOP : No
Format settings, QPel : No
Format settings, GMC : No warppoints
Format settings, Matrix : Default (H.263)
Codec ID : XVID
Codec ID/Hint : XviD
Duration : 51mn 46s
Bit rate : 1 486 Kbps
Width : 720 pixels
Height : 400 pixels
Display aspect ratio : 16:9
Frame rate : 23.976 fps
Color space : YUV
Chroma subsampling : 4:2:0
Bit depth : 8 bits
Scan type : Progressive
Compression mode : Lossy
Bits/(Pixel*Frame) : 0.215
Stream size : 550 MiB (88%)
Writing library : XviD 1.2.1 (UTC 2008-12-04)
Audio
ID : 1
Format : MPEG Audio
Format version : Version 1
Format profile : Layer 3
Mode : Joint stereo
Mode extension : MS Stereo
Codec ID : 55
Codec ID/Hint : MP3
Duration : 51mn 46s
Bit rate mode : Variable
Bit rate : 192 Kbps
Channel(s) : 2 channels
Sampling rate : 48.0 KHz
Compression mode : Lossy
Stream size : 70.6 MiB (11%)
Alignment : Aligned on interleaves
Interleave, duration : 24 ms (0.58 video frame)
Interleave, preload duration : 463 ms
Writing library : LAME3.97b
Encoding settings : -m j -V 4 -q 3 -lowpass 18.6 --abr 192
[Торрент-статистика]
[Профиль]  [ЛС] 
Показать сообщения:    
Ответить на тему

Текущее время: Сегодня 18:23

Часовой пояс: GMT + 4



Вы не можете начинать темы
Вы не можете отвечать на сообщения
Вы не можете редактировать свои сообщения
Вы не можете удалять свои сообщения
Вы не можете голосовать в опросах
Вы не можете прикреплять файлы к сообщениям
Вы не можете скачивать файлы