Черный список / The Blacklist / Сезон 1 / Серия 01-22 из 22 (Джо Карнахан) [2013 г., Драма, криминал, WEB-DLRip] (To4ka)

Ответить на тему
 
Автор
Сообщение

3232fox ®

Пол:

Стаж: 3 года 9 месяцев

Сообщений: 614

Репутация: 423 [+] [-]

Откуда: Крым,Россия

Пост 13-Окт-2013 00:07

[Цитировать] 

-Черный список / The Blacklist--Год выпуска: 2013
Страна: США
Сезон/серии:Сезон 1 / Серия 01-22 из 22
Жанр: Драма, криминал
Продолжительность: ~ 00:45:00
Перевод: Любительский (двухголосый) To4ka--Режиссер: Джо Карнахан--В ролях: Джеймс Спэйдер, Меган Бун, Диего Клаттенхофф, Гарри Дж. Ленникс, Райан Игголд, Ильфенеш Хадера, Чарльз Бэйкер, Александр Блэйз, Роман Блат, Эрик Борк
--Описание: На протяжении десятилетий бывший правительственный агент Рэймонд Реддингтон был одним из самых разыскиваемых беглецов ФБР. Неожиданно он решает сдаться…-- --Тип релиза: WEB-DLRip
Контейнер: AVI
Видео кодек: XviD
Аудио кодек: MP3 (MPEG1 Layer 3)
Видео: 720x400 (16:9), 23,976 fps, ~1124 kb/s, 0,163 bit/pixel
Аудио: Аудио #1: Rus (MP3, 48,0 KHz, 2 ch, 128 kb/s)
Аудио: Аудио #2: eng (MP3, 48,0 KHz, 2 ch, 128 kb/s)--

Скриншоты

MI

General
Complete name : G:\видео\Черный список (Сезон 1) The Blacklist (2013) WEB-DLRip - To4ka\The.Blacklist.s01e01.WEB-DLRip.Rus.Eng..avi
Format : AVI
Format/Info : Audio Video Interleave
File size : 450 MiB
Duration : 45mn 8s
Overall bit rate : 1 394 Kbps
Writing application : VirtualDubModRus 1.5.10.2 (build 2542/release)
Writing library : VirtualDubMod build 2542/release
Video
ID : 0
Format : MPEG-4 Visual
Format profile : Advanced Simple@L5
Format settings, BVOP : Yes
Format settings, QPel : No
Format settings, GMC : No warppoints
Format settings, Matrix : Custom
Codec ID : XVID
Codec ID/Hint : XviD
Duration : 45mn 8s
Bit rate : 1 124 Kbps
Width : 720 pixels
Height : 400 pixels
Display aspect ratio : 16:9
Frame rate : 23.976 fps
Color space : YUV
Chroma subsampling : 4:2:0
Bit depth : 8 bits
Scan type : Progressive
Compression mode : Lossy
Bits/(Pixel*Frame) : 0.163
Stream size : 363 MiB (81%)
Writing library : XviD 64
Audio #1
ID : 1
Format : MPEG Audio
Format version : Version 1
Format profile : Layer 3
Mode : Joint stereo
Mode extension : MS Stereo
Codec ID : 55
Codec ID/Hint : MP3
Duration : 45mn 8s
Bit rate mode : Constant
Bit rate : 128 Kbps
Channel(s) : 2 channels
Sampling rate : 48.0 KHz
Compression mode : Lossy
Stream size : 41.3 MiB (9%)
Alignment : Aligned on interleaves
Interleave, duration : 42 ms (1.00 video frame)
Interleave, preload duration : 504 ms
Audio #2
ID : 2
Format : MPEG Audio
Format version : Version 1
Format profile : Layer 3
Mode : Joint stereo
Mode extension : MS Stereo
Codec ID : 55
Codec ID/Hint : MP3
Duration : 45mn 8s
Bit rate mode : Constant
Bit rate : 128 Kbps
Channel(s) : 2 channels
Sampling rate : 48.0 KHz
Compression mode : Lossy
Stream size : 41.3 MiB (9%)
Alignment : Aligned on interleaves
Interleave, duration : 42 ms (1.00 video frame)
Interleave, preload duration : 504 ms


Последний раз редактировалось: 3232fox (2014-06-26 23:16), всего редактировалось 16 раз(а)
[Торрент-статистика]
[Профиль]  [ЛС] 

3232fox ®

Пол:

Стаж: 3 года 9 месяцев

Сообщений: 614

Репутация: 423 [+] [-]

Откуда: Крым,Россия

Пост 18-Окт-2013 00:27 (спустя 5 дней)

[Цитировать] 

Добавлена 4 серия
[Торрент-статистика]
[Профиль]  [ЛС] 

nova1980

Пол:

Стаж: 5 лет

Сообщений: 820

Репутация: 523 [+] [-]

Откуда: Одесса Мама

Пост 19-Окт-2013 16:35 (спустя 1 день 16 часов)

[Цитировать] 

3232fox, А когда раздача пойдет?

_________________
Мои Раздачи
[Торрент-статистика]
[Профиль]  [ЛС] 

3232fox ®

Пол:

Стаж: 3 года 9 месяцев

Сообщений: 614

Репутация: 423 [+] [-]

Откуда: Крым,Россия

Пост 19-Окт-2013 20:27 (спустя 3 часа)

[Цитировать] 

362653232fox, А когда раздача пойдет?
Понимаешь,я гружу с одного сервера и бывает так ,что видно раздачу,бывает нет,но раздача всегда есть.
Я даже проверил она идёт прекрасно 1,1мб/с
[Торрент-статистика]
[Профиль]  [ЛС] 

nova1980

Пол:

Стаж: 5 лет

Сообщений: 820

Репутация: 523 [+] [-]

Откуда: Одесса Мама

Пост 19-Окт-2013 21:05 (спустя 38 минут)

[Цитировать] 

3232fox, Понял тебя! А то ж я не знал...

_________________
Мои Раздачи
[Торрент-статистика]
[Профиль]  [ЛС] 

3232fox ®

Пол:

Стаж: 3 года 9 месяцев

Сообщений: 614

Репутация: 423 [+] [-]

Откуда: Крым,Россия

Пост 27-Окт-2013 16:15 (спустя 7 дней)

[Цитировать] 

Конец
[Торрент-статистика]
[Профиль]  [ЛС] 
Показать сообщения:    
Ответить на тему

Текущее время: Сегодня 20:34

Часовой пояс: GMT + 4



Вы не можете начинать темы
Вы не можете отвечать на сообщения
Вы не можете редактировать свои сообщения
Вы не можете удалять свои сообщения
Вы не можете голосовать в опросах
Вы не можете прикреплять файлы к сообщениям
Вы не можете скачивать файлы