Заточенные кепки / Peaky Blinders / 1 сезон / серия 1-6 из (6) (Отто Баферст, Том Харпер) [2013 г., Драма, HDTVRip] (ColdFilm)

Ответить на тему
 
Автор
Сообщение

3232fox ®

Пол:

Стаж: 3 года 8 месяцев

Сообщений: 614

Репутация: 423 [+] [-]

Откуда: Крым,Россия

Пост 12-Окт-2013 23:28

[Цитировать] 

-Заточенные кепки / Peaky Blinders /1 сезон/ серия 1-6 из (6)--Год выпуска: 2013
Страна: Великобритания
Жанр: Драма
Продолжительность: ~0:57:00
Перевод: Любительский (двухголосый)(ColdFilm)--Режиссер: Отто Баферст, Том Харпер--В ролях: Киллиан Мёрфи, Пол Андерсон, Иддо Голдберг, Хелен МакКрори, Сэм Нил, Аннабелль Уоллис, Джо Коул, Элфи Эванс-Мис, Джек Хартли, Кевин Меткалф--Описание: Британский сериал о криминальном мире Бирмингема 20-х годов прошлого века, в котором многолюдная семья Шелби стала одной из самых жестоких и влиятельных гангстерских банд послевоенного времени. Фирменным знаком группировки, промышлявшей грабежами и азартными играми, стали зашитые в козырьки лезвия.--Тип релиза: HDTVRip
Контейнер: AVI
Видео кодек: XviD
Аудио кодек: AC3 (Dolby Digital)
Видео: 720x384 (1.88:1), 25 fps, XviD build 50 ~848 kbps avg, 0.12 bit/pixel
Аудио: Аудио: Русский 48 kHz, AC3 Dolby Digital, 2/0 (L,R) ch, ~192 kbps--

Скриншоты

MI

General
Complete name : G:\видео\Peaky_Blinders\Peaky.Blinders.S01E01.2013.ColdFilm.HDTVRip.avi
Format : AVI
Format/Info : Audio Video Interleave
File size : 508 MiB
Duration : 56mn 51s
Overall bit rate : 1 248 Kbps
Writing application : VirtualDubMod 1.5.10.2 (build 2542/release)
Writing library : VirtualDubMod build 2542/release
Video
ID : 0
Format : MPEG-4 Visual
Format profile : Advanced Simple@L5
Format settings, BVOP : Yes
Format settings, QPel : No
Format settings, GMC : No warppoints
Format settings, Matrix : Custom
Codec ID : XVID
Codec ID/Hint : XviD
Duration : 56mn 51s
Bit rate : 850 Kbps
Width : 720 pixels
Height : 384 pixels
Display aspect ratio : 1.875
Frame rate : 25.000 fps
Color space : YUV
Chroma subsampling : 4:2:0
Bit depth : 8 bits
Scan type : Progressive
Compression mode : Lossy
Bits/(Pixel*Frame) : 0.123
Stream size : 346 MiB (68%)
Writing library : XviD 1.2.1 (UTC 2008-12-04)
Audio #1
ID : 1
Format : AC-3
Format/Info : Audio Coding 3
Mode extension : CM (complete main)
Codec ID : 2000
Duration : 56mn 51s
Bit rate mode : Constant
Bit rate : 192 Kbps
Channel(s) : 2 channels
Channel positions : Front: L R
Sampling rate : 48.0 KHz
Bit depth : 16 bits
Compression mode : Lossy
Stream size : 78.1 MiB (15%)
Alignment : Split accross interleaves
Interleave, duration : 40 ms (1.00 video frame)
Interleave, preload duration : 500 ms
Audio #2
ID : 2
Format : AC-3
Format/Info : Audio Coding 3
Mode extension : CM (complete main)
Codec ID : 2000
Duration : 56mn 51s
Bit rate mode : Constant
Bit rate : 192 Kbps
Channel(s) : 2 channels
Channel positions : Front: L R
Sampling rate : 48.0 KHz
Bit depth : 16 bits
Compression mode : Lossy
Stream size : 78.1 MiB (15%)
Alignment : Split accross interleaves
Interleave, duration : 40 ms (1.00 video frame)
Interleave, preload duration : 500 ms


Последний раз редактировалось: 3232fox (2013-10-23 19:23), всего редактировалось 1 раз
[Торрент-статистика]
[Профиль]  [ЛС] 

3232fox ®

Пол:

Стаж: 3 года 8 месяцев

Сообщений: 614

Репутация: 423 [+] [-]

Откуда: Крым,Россия

Пост 16-Окт-2013 23:55 (спустя 4 дня)

[Цитировать] 

Добавлена 5 серия
[Торрент-статистика]
[Профиль]  [ЛС] 

3232fox ®

Пол:

Стаж: 3 года 8 месяцев

Сообщений: 614

Репутация: 423 [+] [-]

Откуда: Крым,Россия

Пост 23-Окт-2013 19:24 (спустя 6 дней)

[Цитировать] 

Финал
[Торрент-статистика]
[Профиль]  [ЛС] 

alien.09

Пол:

Стаж: 3 года 7 месяцев

Сообщений: 748

Репутация: 550 [+] [-]

Пост 25-Окт-2013 13:39 (спустя 1 день 18 часов)

[Цитировать] 

3232fox,
хороший фильм, спасибо.
про 2 сезон не в курсе?

_________________
Правообладатели, убейтесь об эту надпись.
[Торрент-статистика]
[Профиль]  [ЛС] 

3232fox ®

Пол:

Стаж: 3 года 8 месяцев

Сообщений: 614

Репутация: 423 [+] [-]

Откуда: Крым,Россия

Пост 25-Окт-2013 13:50 (спустя 11 минут)

[Цитировать] 

365343232fox,
хороший фильм, спасибо.
про 2 сезон не в курсе?
Пока тишина, если что выложу
[Торрент-статистика]
[Профиль]  [ЛС] 

alien.09

Пол:

Стаж: 3 года 7 месяцев

Сообщений: 748

Репутация: 550 [+] [-]

Пост 25-Окт-2013 13:52 (спустя 1 минута)

[Цитировать] 

3232fox,
понял, пасиб..

_________________
Правообладатели, убейтесь об эту надпись.
[Торрент-статистика]
[Профиль]  [ЛС] 
Показать сообщения:    
Ответить на тему

Текущее время: Сегодня 06:27

Часовой пояс: GMT + 4



Вы не можете начинать темы
Вы не можете отвечать на сообщения
Вы не можете редактировать свои сообщения
Вы не можете удалять свои сообщения
Вы не можете голосовать в опросах
Вы не можете прикреплять файлы к сообщениям
Вы не можете скачивать файлы