Низкое зимнее солнце / Low Winter Sun/ Сезон 1/ Серия 1 - 10 из (10) (Эрнест Р. Дикерсон, Стефан Шварц) [2013 г., Драма, криминал, WEB-DLRip]

Ответить на тему
 
Автор
Сообщение

3232fox ®

Пол:

Стаж: 3 года 9 месяцев

Сообщений: 614

Репутация: 423 [+] [-]

Откуда: Крым,Россия

Пост 07-Окт-2013 23:18

[Цитировать] 

-Низкое зимнее солнце / Low Winter Sun/ Сезон 1/ Серия 1-10 из(10)--Год выпуска: 2013
Страна: США
Жанр: Драма, криминал
Продолжительность: ~00:43:12
Перевод: Профессиональный (многоголосый, закадровый)NewStudio--Режиссер: Эрнест Р. Дикерсон, Стефан Шварц--В ролях: Ленни Джеймс, Марк Стронг, Хизер Фэйрбэнкс, Пенни Мари Хоукинс, Джозеф Катрейн, Билли Лаш, Джеймс Рэнсон
--Описание: История убийства, обмана, мести и коррупции в мире, где грань между полицейскими и преступниками размыта. Сериал начинается с убийства полицейского его другом, детективом из Детройта. Это убийство повлечет за собой события, которые навсегда изменят жизнь детектива…
--Тип релиза: WEB-DLRip
Контейнер: AVI
Видео кодек: Windows Media
Аудио кодек: MP3 (MPEG1 Layer 3)
Видео: ~ 1500 Кбит/с, 720x400
Аудио: Аудио rus: MP3, 2 ch, 128 Кбит--Новый сериал от создателей Во все тяжкие, Убийство и Ходячие мертвецы ...--

Скриншоты

MI

General
Complete name : G:\видео\Low_Winter_Sun\Low.Winter.Sun.s01e01.WEBDLRip.NewStudio.TV.avi
Format : AVI
Format/Info : Audio Video Interleave
File size : 550 MiB
Duration : 43mn 12s
Overall bit rate : 1 779 Kbps
Writing application : VirtualDubMod 1.5.10.2 (build 2540/release)
Writing library : VirtualDubMod build 2540/release
Video
ID : 0
Format : MPEG-4 Visual
Format profile : Advanced Simple@L5
Format settings, BVOP : Yes
Format settings, QPel : No
Format settings, GMC : No warppoints
Format settings, Matrix : Default (MPEG)
Codec ID : XVID
Codec ID/Hint : XviD
Duration : 43mn 12s
Bit rate : 1 510 Kbps
Width : 720 pixels
Height : 400 pixels
Display aspect ratio : 16:9
Frame rate : 23.976 fps
Color space : YUV
Chroma subsampling : 4:2:0
Bit depth : 8 bits
Scan type : Progressive
Compression mode : Lossy
Bits/(Pixel*Frame) : 0.219
Stream size : 467 MiB (85%)
Writing library : XviD 64
Audio #1
ID : 1
Format : MPEG Audio
Format version : Version 1
Format profile : Layer 3
Mode : Joint stereo
Codec ID : 55
Codec ID/Hint : MP3
Duration : 43mn 12s
Bit rate mode : Constant
Bit rate : 128 Kbps
Channel(s) : 2 channels
Sampling rate : 48.0 KHz
Compression mode : Lossy
Stream size : 39.6 MiB (7%)
Alignment : Aligned on interleaves
Interleave, duration : 42 ms (1.00 video frame)
Interleave, preload duration : 504 ms
Audio #2
ID : 2
Format : MPEG Audio
Format version : Version 1
Format profile : Layer 3
Mode : Joint stereo
Mode extension : MS Stereo
Codec ID : 55
Codec ID/Hint : MP3
Duration : 43mn 12s
Bit rate mode : Constant
Bit rate : 128 Kbps
Channel(s) : 2 channels
Sampling rate : 48.0 KHz
Compression mode : Lossy
Stream size : 39.6 MiB (7%)
Alignment : Aligned on interleaves
Interleave, duration : 42 ms (1.00 video frame)
Interleave, preload duration : 504 ms
[Торрент-статистика]
[Профиль]  [ЛС] 

3232fox ®

Пол:

Стаж: 3 года 9 месяцев

Сообщений: 614

Репутация: 423 [+] [-]

Откуда: Крым,Россия

Пост 15-Окт-2013 22:40 (спустя 7 дней)

[Цитировать] 

Финал
[Торрент-статистика]
[Профиль]  [ЛС] 
Показать сообщения:    
Ответить на тему

Текущее время: Сегодня 18:24

Часовой пояс: GMT + 4



Вы не можете начинать темы
Вы не можете отвечать на сообщения
Вы не можете редактировать свои сообщения
Вы не можете удалять свои сообщения
Вы не можете голосовать в опросах
Вы не можете прикреплять файлы к сообщениям
Вы не можете скачивать файлы