Инквизиция / Inquisitio/1сезон/ 1-8 серия из (8) (Николя Кюш) [2012 г., Исторический, HDTVRip]

Ответить на тему
 
Автор
Сообщение

3232fox ®

Пол:

Стаж: 3 года 9 месяцев

Сообщений: 614

Репутация: 423 [+] [-]

Откуда: Крым,Россия

Пост 07-Окт-2013 00:01

[Цитировать] 

-Инквизиция / Inquisitio/1сезон/ 1-8 серия из (8)--Год выпуска: 2012
Страна: Франция
Жанр: Исторический
Продолжительность: ~ 00:45:00
Перевод: Профессиональный (многоголосый, закадровый)студия "СВ-Дубль" по заказу ГТРК "Культура"--Режиссер: Николя Кюш--В ролях: Орельен Вик, Владислав Галард, Аннелиз Эсм, Анн Броше, Филипп Дюкло, Ив Жак, Филипп Лоденбаш, Оливье Рабурден.--Описание: Великий инквизитор Барналь прибывает по поручению папы Климента VII в Карпантра, где совершено дьявольское преступление: найден священник, распятый на кресте перед своей церковью. В это же время два врача из еврейского квартала, Давид и его сын Самюэль, нарушая запрет на лечение христиан, спасают в тяжелых родах жену и ребенка несчастного Лекло. Когда же Самюэль выходит из дома роженицы, на кресте в ближайшей церкви горит аббат Тюйяр…--Тип релиза: HDTVRip
Контейнер: AVI
Видео кодек: XviD
Аудио кодек: AC3 (Dolby Digital)
Видео: 624x352 (16/9), 25.000 fps, 928 Kbps (0.169 bit/pixel)
Аудио: Аудио 1: AC-3, 48.0 KHz, 2 ch, 192 Kbps, CBR - русский--

Скриншоты

MI

General
Complete name : G:\видео\Inquisitio\1x01 - De viris (О мужчинах).avi
Format : AVI
Format/Info : Audio Video Interleave
File size : 442 MiB
Duration : 48mn 57s
Overall bit rate : 1 263 Kbps
Movie name : Инквизиция / Inquisitio (2012)
Writing application : VirtualDubMod 1.5.10.2 (build 2540/release)
Writing library : VirtualDubMod build 2540/release
Video
ID : 0
Format : MPEG-4 Visual
Format profile : Advanced Simple@L5
Format settings, BVOP : Yes
Format settings, QPel : No
Format settings, GMC : No warppoints
Format settings, Matrix : Default (H.263)
Codec ID : XVID
Codec ID/Hint : XviD
Duration : 48mn 57s
Bit rate : 928 Kbps
Width : 624 pixels
Height : 352 pixels
Display aspect ratio : 16:9
Frame rate : 25.000 fps
Color space : YUV
Chroma subsampling : 4:2:0
Bit depth : 8 bits
Scan type : Progressive
Compression mode : Lossy
Bits/(Pixel*Frame) : 0.169
Stream size : 325 MiB (74%)
Writing library : XviD 64
Audio #1
ID : 1
Format : AC-3
Format/Info : Audio Coding 3
Mode extension : CM (complete main)
Codec ID : 2000
Duration : 48mn 57s
Bit rate mode : Constant
Bit rate : 192 Kbps
Channel(s) : 2 channels
Channel positions : Front: L R
Sampling rate : 48.0 KHz
Bit depth : 16 bits
Compression mode : Lossy
Stream size : 67.2 MiB (15%)
Alignment : Split accross interleaves
Interleave, duration : 40 ms (1.00 video frame)
Interleave, preload duration : 500 ms
Title : Профессиональный (многоголосый закадровый) Культура
Audio #2
ID : 2
Format : MPEG Audio
Format version : Version 1
Format profile : Layer 3
Mode : Joint stereo
Mode extension : MS Stereo
Codec ID : 55
Codec ID/Hint : MP3
Duration : 48mn 57s
Bit rate mode : Constant
Bit rate : 128 Kbps
Channel(s) : 2 channels
Sampling rate : 48.0 KHz
Compression mode : Lossy
Stream size : 44.8 MiB (10%)
Alignment : Aligned on interleaves
Interleave, duration : 40 ms (1.00 video frame)
Interleave, preload duration : 504 ms
Title : Французский
[Торрент-статистика]
[Профиль]  [ЛС] 
Показать сообщения:    
Ответить на тему

Текущее время: Сегодня 08:56

Часовой пояс: GMT + 4



Вы не можете начинать темы
Вы не можете отвечать на сообщения
Вы не можете редактировать свои сообщения
Вы не можете удалять свои сообщения
Вы не можете голосовать в опросах
Вы не можете прикреплять файлы к сообщениям
Вы не можете скачивать файлы