Чужой среди своих / Родина / Homeland / Сезон: 3 / Серии: 1-12 из 12 (Майкл Куэста / Michael Cuesta, Кларк Джонсон / Clark Johnson, Джеффри Начманофф / Jeffrey Nachmanoff) [2013, триллер, драма, детектив, WEB-DLRip] MVO (Пифагор)

Ответить на тему
 
Автор
Сообщение

TiZAr ®

Пол:

Стаж: 3 года 3 месяца

Сообщений: 836

Репутация: 1157 [+] [-]

Откуда: Россия

Пост 01-Окт-2013 04:41

[Цитировать] 

Чужой среди своих / Родина / Homeland
«The nation sees a hero. She sees a threat.»
- Год выпуска: 2013
Страна: США
Жанр: триллер, драма, детектив
Продолжительность серии: ~55 мин.
Перевод: Профессиональный (многоголосый закадровый) Пифагор
Субтитры: нет
Оригинальная аудиодорожка: нет
Режиссёр: Майкл Куэста | Michael Cuesta, Кларк Джонсон | Clark Johnson, Джеффри Начманофф | Jeffrey Nachmanoff
Производство: Cherry Pie Productions, Fox 21, Keshet Broadcasting, Showtime Networks Inc., Teakwood Lane Productions- -В ролях:
Клэр Дэйнс, Дэмиэн Льюис, Мэнди Пэтинкин, Морена Баккарин, Дэвид Хэрвуд, Джексон Паке, Морган Сэйлор, Диего Клаттенхофф, Руперт Френд, Дэвид Марсиано и др.
Описание:
Шпионская драма продолжается. Суперинтересные первый и второй сезоны этого телешедевра уже позади, но нас ожидает новый виток сюжета. Сотрудницу ЦРУ Кэрри отправят в психлечебницу, и история сконцентрируется на семье офицера Броуди, в особенности, на его дочери, которая приняла ислам. Ну и конечно снова ожидаетсят много прослушки, перехватов, дезинформации и борьбы с терроризмом на благо Америки.
Автор рипа: ArtZak
От автора: в рип внесены некоторые изменения, а в частности:
1. Исключена оригинальная английская аудиодорожка - уменьшение размера серии ~50 Мб.
2. Битрейт у всех серий одинаковый статический - 1420 Kbps.
3. Субтитры не вшивались, т. к. содержат в себе рекламу.
4. Воспроизведется на любом бытовом проигрывателе - проверялось лично на "плюшевом" Mystery MDV-729U (V1K09).
Качество: WEB-DLRip | Сэмпл | Исходник: Homeland.S03.720p.WEB-DL.DD5.1.H.264
Формат: AVI
Видео кодек: XviD
Аудио кодек: MP3
Видео: MPEG4, XviD, 720x400 (16:9), 23.976 fps, 1 420 Kbps (0.206 bit/pixel)
Аудио: MP3, 48.0 KHz, 2 ch, 128 Kbps, CBR

Список серий:

  • Железный дровосек мёртв (Tin Man Is Down)
  • Ух... ох... ах... (Uh... Oh... Ah...)
  • Башня Давида (Tower of David)
  • Игра началась (Game On)
  • Приём с йогой (The Yoga Play)
  • Ещё в деле (Still Positive)
  • Стариканус (Gerontion)
  • Красная тачка (A Red Wheelbarrow)
  • Последний раз (One Last Time)
  • Спокойной ночи (Good Night)
  • Большой человек в Тегеране (Big Man in Tehran)
  • Звезда (The Star)

MediaInfo

General
Complete name : Homeland s03e01.avi
Format : AVI
Format/Info : Audio Video Interleave
File size : 647 MiB
Duration : 58mn 5s
Overall bit rate : 1 557 Kbps
Writing application : VirtualDubMod 1.5.10.2 (build 2540/release)
Writing library : VirtualDubMod build 2540/release
Video
ID : 0
Format : MPEG-4 Visual
Format profile : Advanced Simple@L5
Format settings, BVOP : 1
Format settings, QPel : No
Format settings, GMC : No warppoints
Format settings, Matrix : Default (H.263)
Codec ID : XVID
Codec ID/Hint : XviD
Duration : 58mn 5s
Bit rate : 1 420 Kbps
Width : 720 pixels
Height : 400 pixels
Display aspect ratio : 16:9
Frame rate : 23.976 fps
Color space : YUV
Chroma subsampling : 4:2:0
Bit depth : 8 bits
Scan type : Progressive
Compression mode : Lossy
Bits/(Pixel*Frame) : 0.206
Stream size : 590 MiB (91%)
Writing library : XviD 1.2.1 (UTC 2008-12-04)
Audio
ID : 1
Format : MPEG Audio
Format version : Version 1
Format profile : Layer 3
Codec ID : 55
Codec ID/Hint : MP3
Duration : 58mn 5s
Bit rate mode : Constant
Bit rate : 128 Kbps
Channel count : 2 channels
Sampling rate : 48.0 KHz
Compression mode : Lossy
Stream size : 53.2 MiB (8%)
Alignment : Aligned on interleaves
Interleave, duration : 42 ms (1.00 video frame)
Interleave, preload duration : 504 ms
Writing library : LAME3.98r
Encoding settings : -m s -V 4 -q 2 -lowpass 17 -b 128

Скриншоты



Сезон завершен. Приятного просмотра! Ждем продолжения!

_________________
Не стоит обращать внимания на отсутствие сидов на моих раздачах. Все мои релизы мультитрекерные - нет сидов, включите DHT.
За релизами в HD качестве обращайтесь в личку, либо отписывайтесь в теме.


Последний раз редактировалось: TiZAr (2013-12-10 08:24), всего редактировалось 5 раз(а)
[Торрент-статистика]
[Профиль]  [ЛС] 

TiZAr ®

Пол:

Стаж: 3 года 3 месяца

Сообщений: 836

Репутация: 1157 [+] [-]

Откуда: Россия

Пост 21-Дек-2013 04:08 (спустя 2 месяца 19 дней)

[Цитировать] 

Сезон завершен. Приятного просмотра! Ждем продолжения!

_________________
Не стоит обращать внимания на отсутствие сидов на моих раздачах. Все мои релизы мультитрекерные - нет сидов, включите DHT.
За релизами в HD качестве обращайтесь в личку, либо отписывайтесь в теме.
[Торрент-статистика]
[Профиль]  [ЛС] 
Показать сообщения:    
Ответить на тему

Текущее время: Сегодня 18:19

Часовой пояс: GMT + 4



Вы не можете начинать темы
Вы не можете отвечать на сообщения
Вы не можете редактировать свои сообщения
Вы не можете удалять свои сообщения
Вы не можете голосовать в опросах
Вы не можете прикреплять файлы к сообщениям
Вы не можете скачивать файлы