Подпольная Империя / Boardwalk Empire / Сезон 4 / серии 1-12 из (12) (Тимоти Ван Паттен, Аллен Култер, Джереми Подесва) [2013 г., криминальная драма, HDTVRip] [Amedia]

Ответить на тему
 
Автор
Сообщение

3232fox ®

Пол:

Стаж: 3 года 9 месяцев

Сообщений: 614

Репутация: 423 [+] [-]

Откуда: Крым,Россия

Пост 26-Сен-2013 23:31

[Цитировать] 

-Подпольная Империя / Boardwalk Empire --Год выпуска: 2013
Страна: США
Жанр: криминальная драма
Продолжительность: ~01:00
Перевод: Профессиональный (многоголосый, закадровый)[Amedia]--Режиссер: Тимоти Ван Паттен, Аллен Култер, Джереми Подесва--В ролях: Стив Бушеми, Келли Макдоналд, Майкл Шеннон, Ши Уигхэм, Майкл Стулбарг, Стивен Грэм, Винсент Пьяцца, Джек Хьюстон--Описание: 1920 год. Через несколько часов Атлантик-Сити — столица развлечений и порока, как и вся Америка, вступит в эпоху «Сухого закона». Енох «Наки» Томпсон, днем — городской казначей, а ночью — хитроумный гангстер со связями на самом «верху», решает воспользоваться ситуацией и получить баснословные прибыли на подпольной торговле алкоголем. Однако не он один жаждет обогатиться на новом промысле…-- --Тип релиза: HDTVRip
Контейнер: MKV
Видео кодек: H264 (AVC)
Аудио кодек: AC3 (Dolby Digital)
Видео: MPEG-4 AVC, 2225 Кбит/с, 1280x720
Аудио: Русский (АС3, 2 ch, 192 Кбит/с) английский (АС3, 2 ch, 384 Кбит/с)--

Скриншоты

MI

General
UniqueID : 246560032524710807783597886867406254581 (0xB97DBC272E24B66D87F04D6D56DAF1F5)
Complete name : G:\видео\Boardwalk.Empire.S04.HDTV.720p.CasStudioTV\Boardwalk.Empire.S04E12.HDTV.720p.CasStudioTV.mkv
Format : Matroska
File size : 1.06 GiB
Duration : 57mn 16s
Overall bit rate : 2 639 Kbps
Encoded date : UTC 2013-11-25 21:18:12
Writing application : mkvmerge v6.3.0 ('You can't stop me!') built on Jun 27 2013 22:06:07
Writing library : libebml v1.3.0 + libmatroska v1.4.0
Video
ID : 1
Format : AVC
Format/Info : Advanced Video Codec
Format profile : High@L4.1
Format settings, CABAC : Yes
Format settings, ReFrames : 5 frames
Format settings, GOP : M=3, N=32
Codec ID : V_MPEG4/ISO/AVC
Duration : 57mn 16s
Bit rate : 2 010 Kbps
Width : 1 280 pixels
Height : 720 pixels
Display aspect ratio : 16:9
Frame rate : 23.976 fps
Color space : YUV
Chroma subsampling : 4:2:0
Bit depth : 8 bits
Scan type : Progressive
Bits/(Pixel*Frame) : 0.091
Stream size : 823 MiB (76%)
Writing library : x264 core 140 r2377 1ca7bb9
Encoding settings : cabac=1 / ref=5 / deblock=1:0:0 / analyse=0x3:0x113 / me=umh / subme=8 / psy=1 / psy_rd=1.00:0.00 / mixed_ref=1 / me_range=16 / chroma_me=1 / trellis=1 / 8x8dct=1 / cqm=0 / deadzone=21,11 / fast_pskip=1 / chroma_qp_offset=-2 / threads=18 / lookahead_threads=3 / sliced_threads=0 / nr=0 / decimate=1 / interlaced=0 / bluray_compat=0 / constrained_intra=0 / bframes=3 / b_pyramid=2 / b_adapt=2 / b_bias=0 / direct=3 / weightb=1 / open_gop=0 / weightp=2 / keyint=250 / keyint_min=23 / scenecut=40 / intra_refresh=0 / rc_lookahead=50 / rc=crf / mbtree=1 / crf=18.0 / qcomp=0.60 / qpmin=0 / qpmax=69 / qpstep=4 / ip_ratio=1.40 / aq=1:1.00
Language : English
Matrix coefficients : BT.709-5, BT.1361, IEC 61966-2-4 709, SMPTE RP177
Audio #1
ID : 2
Format : AC-3
Format/Info : Audio Coding 3
Mode extension : CM (complete main)
Codec ID : A_AC3
Duration : 57mn 16s
Bit rate mode : Constant
Bit rate : 192 Kbps
Channel(s) : 2 channels
Channel positions : Front: L R
Sampling rate : 48.0 KHz
Bit depth : 16 bits
Compression mode : Lossy
Stream size : 78.6 MiB (7%)
Title : Amedia
Language : Russian
Audio #2
ID : 3
Format : AC-3
Format/Info : Audio Coding 3
Mode extension : CM (complete main)
Codec ID : A_AC3
Duration : 57mn 16s
Bit rate mode : Constant
Bit rate : 384 Kbps
Channel(s) : 2 channels
Channel positions : Front: L R
Sampling rate : 48.0 KHz
Bit depth : 16 bits
Compression mode : Lossy
Stream size : 157 MiB (15%)
Title : original
Language : English


Последний раз редактировалось: 3232fox (2013-12-23 23:43), всего редактировалось 15 раз(а)
[Торрент-статистика]
[Профиль]  [ЛС] 

3232fox ®

Пол:

Стаж: 3 года 9 месяцев

Сообщений: 614

Репутация: 423 [+] [-]

Откуда: Крым,Россия

Пост 01-Окт-2013 23:54 (спустя 5 дней)

[Цитировать] 

Добавлена 4 серия
[Торрент-статистика]
[Профиль]  [ЛС] 

3232fox ®

Пол:

Стаж: 3 года 9 месяцев

Сообщений: 614

Репутация: 423 [+] [-]

Откуда: Крым,Россия

Пост 12-Окт-2013 22:32 (спустя 10 дней)

[Цитировать] 

Добавлена 5 серия
[Торрент-статистика]
[Профиль]  [ЛС] 

Сфинксик

Пол:

Стаж: 3 года 7 месяцев

Сообщений: 1661

Репутация: 1032 [+] [-]

Откуда: г.Раменское

Пост 12-Окт-2013 22:38 (спустя 5 минут)

[Цитировать] 

+. ay

_________________
ЕСЛИ НЕТ СИДОВ НА РАЗДАЧЕ СТУЧИТЕ В ЛИЧКУ В ТЕЧЕНИИ СУТОК ВОССТАНОВЛЮ!!!!
[Торрент-статистика]
[Профиль]  [ЛС] 

3232fox ®

Пол:

Стаж: 3 года 9 месяцев

Сообщений: 614

Репутация: 423 [+] [-]

Откуда: Крым,Россия

Пост 18-Окт-2013 02:24 (спустя 5 дней)

[Цитировать] 

Добавлена 11 серия
[Торрент-статистика]
[Профиль]  [ЛС] 

Pablo

Стаж: 3 года

Сообщений: 3

Репутация: 1 [+] [-]

Пост 27-Ноя-2013 11:15 (спустя 1 месяц 9 дней)

[Цитировать] 

КЛАСС! Спасибо!
[Торрент-статистика]
[Профиль]  [ЛС] 

Pablo

Стаж: 3 года

Сообщений: 3

Репутация: 1 [+] [-]

Пост 09-Дек-2013 14:39 (спустя 12 дней)

[Цитировать] 

Когжа ждать 12 серию?
[Торрент-статистика]
[Профиль]  [ЛС] 

3232fox ®

Пол:

Стаж: 3 года 9 месяцев

Сообщений: 614

Репутация: 423 [+] [-]

Откуда: Крым,Россия

Пост 09-Дек-2013 22:22 (спустя 7 часов)

[Цитировать] 

Рип заменён,финал,подожддите пока скрины поменяю
[Торрент-статистика]
[Профиль]  [ЛС] 

ArtZak

Пол:

Стаж: 5 лет 1 месяц

Сообщений: 3008

Репутация: 1363 [+] [-]

Откуда: Россия

Пост 23-Дек-2013 23:30 (спустя 14 дней)

[Цитировать] 

3232fox, заочно проверю, но обязательно доофрмите!
[Торрент-статистика]
[Профиль]  [ЛС] 

3232fox ®

Пол:

Стаж: 3 года 9 месяцев

Сообщений: 614

Репутация: 423 [+] [-]

Откуда: Крым,Россия

Пост 23-Дек-2013 23:31 (спустя 53 секунды)

[Цитировать] 

Минут 20 будет готово
[Торрент-статистика]
[Профиль]  [ЛС] 

ArtZak

Пол:

Стаж: 5 лет 1 месяц

Сообщений: 3008

Репутация: 1363 [+] [-]

Откуда: Россия

Пост 23-Дек-2013 23:36 (спустя 4 минуты)

[Цитировать] 

39876Минут 20 будет готово
ОК!
[Торрент-статистика]
[Профиль]  [ЛС] 

3232fox ®

Пол:

Стаж: 3 года 9 месяцев

Сообщений: 614

Репутация: 423 [+] [-]

Откуда: Крым,Россия

Пост 23-Дек-2013 23:39 (спустя 3 минуты)

[Цитировать] 

ArtZak, Всё готово
[Торрент-статистика]
[Профиль]  [ЛС] 

ArtZak

Пол:

Стаж: 5 лет 1 месяц

Сообщений: 3008

Репутация: 1363 [+] [-]

Откуда: Россия

Пост 24-Дек-2013 00:40 (спустя 1 час)

[Цитировать] 

39879ArtZak, Всё готово
ОК. Можно Вам доверять - Вы человек слова!
[Торрент-статистика]
[Профиль]  [ЛС] 

3232fox ®

Пол:

Стаж: 3 года 9 месяцев

Сообщений: 614

Репутация: 423 [+] [-]

Откуда: Крым,Россия

Пост 24-Дек-2013 02:21 (спустя 1 час 40 минут)

[Цитировать] 

39885
39879ArtZak, Всё готово
ОК. Можно Вам доверять - Вы человек слова!
Давай на ты уже
[Торрент-статистика]
[Профиль]  [ЛС] 

ArtZak

Пол:

Стаж: 5 лет 1 месяц

Сообщений: 3008

Репутация: 1363 [+] [-]

Откуда: Россия

Пост 24-Дек-2013 02:37 (спустя 15 минут)

[Цитировать] 

3232fox, ОК!
[Торрент-статистика]
[Профиль]  [ЛС] 

Pablo

Стаж: 3 года

Сообщений: 3

Репутация: 1 [+] [-]

Пост 24-Дек-2013 16:56 (спустя 14 часов)

[Цитировать] 

3232fox, БОЛЬШОЕ СПАСИБО!!!
[Торрент-статистика]
[Профиль]  [ЛС] 
Показать сообщения:    
Ответить на тему

Текущее время: Сегодня 09:02

Часовой пояс: GMT + 4



Вы не можете начинать темы
Вы не можете отвечать на сообщения
Вы не можете редактировать свои сообщения
Вы не можете удалять свои сообщения
Вы не можете голосовать в опросах
Вы не можете прикреплять файлы к сообщениям
Вы не можете скачивать файлы