Революция / Revolution / Сезон: 2 / Серии: 1-22 из 22 (Стив Бойум, Чарльз Бисон, Джон Кассар) [2013-2014 г., фантастика, боевик, драма, приключения, WEB-DLRip 1080p / WEB-DLRip 720p] MVO (LostFilm) FINAL

Ответить на тему
 
Автор
Сообщение

Волк ®

Пол:

Стаж: 5 лет 1 месяц

Сообщений: 689

Репутация: 292 [+] [-]

Откуда: Армения

Пост 26-Сен-2013 20:23

[Цитировать] 

Революция / Revolution-
Год выпуска: 2014
Страна: США
Жанр: фантастика, драма
Продолжительность: ~00:43:00-Перевод: Профессиональный (многоголосый, закадровый) - LostFilm-Режиссёры: Стив Бойум, Чарльз Бисон-В ролях: Билли Бёрк, Шэйн Каллахан, Кен Арнольд, Джанкарло Эспозито, Тим Гини, Уильям Хатчингс, Элизабет Митчелл, Даниелла Алонсо, Мария Хауэлл, Зак Орт, Дж.Д. Пардо, Майкл Дьюсенберг, Майк Холмс, Трэйси Спиридакос и др.-Описание: Вся наша жизнь зависит от электричества. Что же произойдет, если оно внезапно исчезнет? Однажды, словно по щелчку выключателя, весь мир был отброшен в темные века. Самолеты падали с небес, больницы лишались энергообеспечения, связь стала невозможной. Теперь, без всех современных технологий, кто же ответит, почему?
Через 15 лет после бедствия, жизнь стала такой, какой она была до промышленной революции: семьи живут на глухих улочках, с заходом солнца зажигают фонари и свечи. Жизнь стала спокойнее и лучше. Но так ли это?
За пределами небольших фермерских общин все еще таится опасность. Так жизнь молодой девушки резко меняется, когда местная милиция убивает ее отца, который каким-то неведомым для дочери образом имел связь с отключением. Это событие заставляет ее вместе с двумя спутниками отправиться в смелое путешествие, чтобы найти правду о прошлом в надежде изменить будущее.- -Качество: WEB-DLRip
Формат: MKV
Видео: MPEG4 Video (H264) 1280x720 23.976fps [Video]
Аудио: Dolby AC3 48000Hz stereo 384kbps [Audio]
Аудио 1 Rus: AC3, 48,0 KHz, 2 ch, 384 kbps - многоголосый
Аудио 2 Eng: AC3, 48,0 KHz, 2 ch, 384 kbps - оригинал-

MediaInfo

General
Unique ID : 222446534415106012777841151761105210939 (0xA759A4E808198B1C9B249AADB2E2CE3B)
Complete name : D:\FILMS\Революция. Второй сезон\Revolution.S02E04.720p.rus.LostFilm.TV.mkv
Format : Matroska
Format version : Version 2
File size : 1.45 GiB
Duration : 43mn 11s
Overall bit rate : 4 810 Kbps
Encoded date : UTC 2013-10-18 16:27:28
Writing application : mkvmerge v4.2.0 ('No Talking') сборка от Jul 28 2010 18:38:23
Writing library : libebml v1.0.0 + libmatroska v1.0.0
Video
ID : 1
Format : AVC
Format/Info : Advanced Video Codec
Format profile : High@L3.1
Format settings, CABAC : Yes
Format settings, ReFrames : 4 frames
Codec ID : V_MPEG4/ISO/AVC
Duration : 43mn 11s
Bit rate : 4 041 Kbps
Width : 1 280 pixels
Height : 720 pixels
Display aspect ratio : 16:9
Frame rate mode : Constant
Frame rate : 23.976 fps
Color space : YUV
Chroma subsampling : 4:2:0
Bit depth : 8 bits
Scan type : Progressive
Bits/(Pixel*Frame) : 0.183
Stream size : 1.19 GiB (82%)
Writing library : x264 core 112 r1834 a51816a
Encoding settings : cabac=1 / ref=1 / deblock=1:0:0 / analyse=0x3:0x113 / me=hex / subme=7 / psy=1 / psy_rd=1.00:0.00 / mixed_ref=0 / me_range=16 / chroma_me=1 / trellis=1 / 8x8dct=1 / cqm=0 / deadzone=21,11 / fast_pskip=1 / chroma_qp_offset=-2 / threads=6 / sliced_threads=0 / nr=0 / decimate=1 / interlaced=0 / constrained_intra=0 / bframes=3 / b_pyramid=2 / b_adapt=1 / b_bias=0 / direct=1 / weightb=1 / open_gop=0 / weightp=2 / keyint=250 / keyint_min=25 / scenecut=40 / intra_refresh=0 / rc_lookahead=40 / rc=2pass / mbtree=1 / bitrate=4041 / ratetol=1.0 / qcomp=0.60 / qpmin=0 / qpmax=51 / qpstep=4 / cplxblur=20.0 / qblur=0.5 / ip_ratio=1.40 / aq=1:1.00
Default : Yes
Forced : No
Audio #1
ID : 2
Format : AC-3
Format/Info : Audio Coding 3
Mode extension : CM (complete main)
Format settings, Endianness : Big
Codec ID : A_AC3
Duration : 43mn 11s
Bit rate mode : Constant
Bit rate : 384 Kbps
Channel count : 2 channels
Channel positions : Front: L R
Sampling rate : 48.0 KHz
Bit depth : 16 bits
Compression mode : Lossy
Stream size : 119 MiB (8%)
Default : Yes
Forced : No
Audio #2
ID : 3
Format : AC-3
Format/Info : Audio Coding 3
Mode extension : CM (complete main)
Format settings, Endianness : Big
Codec ID : A_AC3
Duration : 43mn 11s
Bit rate mode : Constant
Bit rate : 384 Kbps
Channel count : 2 channels
Channel positions : Front: L R
Sampling rate : 48.0 KHz
Bit depth : 16 bits
Compression mode : Lossy
Stream size : 119 MiB (8%)
Default : No
Forced : No
-

Скриншоты



Последний раз редактировалось: Волк (2014-06-02 22:10), всего редактировалось 2 раз(а)
[Торрент-статистика]
[Профиль]  [ЛС] 
Показать сообщения:    
Ответить на тему

Текущее время: Сегодня 18:24

Часовой пояс: GMT + 4



Вы не можете начинать темы
Вы не можете отвечать на сообщения
Вы не можете редактировать свои сообщения
Вы не можете удалять свои сообщения
Вы не можете голосовать в опросах
Вы не можете прикреплять файлы к сообщениям
Вы не можете скачивать файлы