Сыны Анархии / Sons of Anarchy / Cезон 6 / серия 1-13 из (13) (Курт Саттер) [2013 г., Криминал,Драма, WEBRip] (LostFilm)

Ответить на тему
 
Автор
Сообщение

3232fox ®

Пол:

Стаж: 3 года 9 месяцев

Сообщений: 614

Репутация: 423 [+] [-]

Откуда: Крым,Россия

Пост 25-Сен-2013 22:35

[Цитировать] 

-Сыны Анархии / Sons of Anarchy --Год выпуска: 2013
Страна: США
Жанр: Криминал,Драма
Продолжительность: ~ 00:45:00
Перевод: Профессиональный (многоголосый, закадровый) LostFilm--Режиссер: Курт Саттер--В ролях: Чарли Ханнэм (Джексон «Джекс» Теллер), Кэти Сагал (Дженна Теллер Морроу), Марк Бун Джуниор (Роберт «Бобби» Мансон), Мэгги Сифф (Тара Ноулз), Рон Перлман (Клэренс «Клэй» Морроу), Ким Коутс (Алекс «Тиг» Трэгер), Тео Росси (Джуан Карлос «Джус» Ортиз), Дэйтон Калли (Уэйн Ансер)--Описание: Сериал рассказывает о незаконном клубе байкеров, которые пытаются защитить свой городок от наркотиков и влияния из вне, хотя сами грешат торговлей оружия. Молодой лидер клуба не слишком уверен в том, что выбрал правильный путь, и пытается что-то изменить, к неудовольствию своих мамы и отчима.--
--Тип релиза:WEBRip
Контейнер: AVI
Видео кодек: XviD
Аудио кодек: MP3 (MPEG1 Layer 3)
Видео: 720x400 (1.80:1), 23.976 fps, XviD MPEG-4 ~1914 kbps avg, 0.28 bit/pixel
Аудио: 48 kHz, MPEG Layer 3, 2 ch, ~185.10 kbps avg--

Скриншоты

MI

General
Complete name : G:\видео\Sons_of_Anarchy\Sons.of.Anarchy.S06E02.rus.LostFilm.avi
Format : AVI
Format/Info : Audio Video Interleave
File size : 759 MiB
Duration : 57mn 24s
Overall bit rate : 1 847 Kbps
Writing application : Nandub v1.0rc2
Writing library : Nandub build 1853/release
Video
ID : 0
Format : MPEG-4 Visual
Format profile : Simple@L3
Format settings, BVOP : No
Format settings, QPel : No
Format settings, GMC : No warppoints
Format settings, Matrix : Default (H.263)
Codec ID : XVID
Codec ID/Hint : XviD
Duration : 57mn 24s
Bit rate : 1 651 Kbps
Width : 720 pixels
Height : 400 pixels
Display aspect ratio : 16:9
Frame rate : 23.976 fps
Color space : YUV
Chroma subsampling : 4:2:0
Bit depth : 8 bits
Scan type : Progressive
Compression mode : Lossy
Bits/(Pixel*Frame) : 0.239
Stream size : 678 MiB (89%)
Writing library : XviD 1.2.1 (UTC 2008-12-04)
Audio
ID : 1
Format : MPEG Audio
Format version : Version 1
Format profile : Layer 3
Mode : Joint stereo
Mode extension : MS Stereo
Codec ID : 55
Codec ID/Hint : MP3
Duration : 57mn 24s
Bit rate mode : Variable
Bit rate : 192 Kbps
Channel(s) : 2 channels
Sampling rate : 48.0 KHz
Compression mode : Lossy
Stream size : 75.5 MiB (10%)
Alignment : Aligned on interleaves
Interleave, duration : 24 ms (0.58 video frame)
Interleave, preload duration : 505 ms
Writing library : LAME3.97b
Encoding settings : -m j -V 4 -q 3 -lowpass 18.6 --abr 192
Внимание! Сериал содержит ненормативную лексику, сцены насилия и сцены с обнаженной натурой.


Последний раз редактировалось: 3232fox (2013-12-13 22:55), всего редактировалось 16 раз(а)
[Торрент-статистика]
[Профиль]  [ЛС] 

3232fox ®

Пол:

Стаж: 3 года 9 месяцев

Сообщений: 614

Репутация: 423 [+] [-]

Откуда: Крым,Россия

Пост 27-Сен-2013 23:43 (спустя 2 дня 1 час)

[Цитировать] 

Добавлена 4 серия
[Торрент-статистика]
[Профиль]  [ЛС] 

3232fox ®

Пол:

Стаж: 3 года 9 месяцев

Сообщений: 614

Репутация: 423 [+] [-]

Откуда: Крым,Россия

Пост 12-Окт-2013 22:35 (спустя 14 дней)

[Цитировать] 

Добавлена 8 серия
[Торрент-статистика]
[Профиль]  [ЛС] 

3232fox ®

Пол:

Стаж: 3 года 9 месяцев

Сообщений: 614

Репутация: 423 [+] [-]

Откуда: Крым,Россия

Пост 08-Ноя-2013 22:45 (спустя 27 дней)

[Цитировать] 

Финал
[Торрент-статистика]
[Профиль]  [ЛС] 
Показать сообщения:    
Ответить на тему

Текущее время: Сегодня 20:36

Часовой пояс: GMT + 4



Вы не можете начинать темы
Вы не можете отвечать на сообщения
Вы не можете редактировать свои сообщения
Вы не можете удалять свои сообщения
Вы не можете голосовать в опросах
Вы не можете прикреплять файлы к сообщениям
Вы не можете скачивать файлы