Сыны Анархии / Sons of Anarchy/сезон 1-5 (Гай Ферленд, Стефен Т. Кэй, Гвинет Хордер-Пэйтон) [2008-2012 г., Криминал,Драма, HDTVRip]

Ответить на тему
 
Автор
Сообщение

3232fox ®

Пол:

Стаж: 3 года 9 месяцев

Сообщений: 614

Репутация: 423 [+] [-]

Откуда: Крым,Россия

Пост 24-Сен-2013 20:12

[Цитировать] 

-Сыны Анархии / Sons of Anarchy/сезон 1-5--Год выпуска: 2008-2012
Страна: США
Жанр: Криминал,Драма
Продолжительность: ~ 00:45:00
Перевод: Профессиональный (многоголосый, закадровый)LostFilm--Режиссер: Гай Ферленд, Стефен Т. Кэй, Гвинет Хордер-Пэйтон--В ролях: Чарли Ханнэм, Рон Перлман, Кэти Сагал, Марк Бун Джуниор, Томми Флэнаган, Ким Коутс, Райан Херст, Дэйтон Калли, Тео Росси, Мэгги Сифф--Описание: Сериал рассказывает о клубе байкеров, которые пытаются защитить свой городок от наркотиков и влияния извне, хотя сами грешат торговлей оружия. Молодой лидер клуба не слишком уверен в том, что выбрал правильный путь, и пытается что–то изменить к неудовольствию своих мамы и отчима.--Внимание! Сериал содержит ненормативную лексику, сцены насилия и сцены с обнаженной натурой.--Качество: 1 и 3 сезон HDTVRip, 2 и 4 сезон WEB-DLRip--Тип релиза: HDTVRip
Контейнер: AVI
Видео кодек: XviD
Аудио кодек: MP3 (MPEG1 Layer 3)
Видео: 720x400 (1.80:1), 23.976 fps, XviD MPEG-4 ~1612 kbps avg, 0.23 bit/pixe
Аудио: 48 kHz, MPEG Layer 3, 2 ch, ~128.00 kbps avg

Скриншоты

MI

General
Complete name : G:\видео\Sons of Anarchy\Sons of Anarchy 5 - LostFilm.TV\Sons.of.Anarchy.S05E01.rus.LostFilm.TV.avi
Format : AVI
Format/Info : Audio Video Interleave
File size : 715 MiB
Duration : 1h 0mn
Overall bit rate : 1 662 Kbps
Writing application : VirtualDubMod 1.5.10.1 (build 2366/release)
Writing library : VirtualDubMod build 2366/release
Video
ID : 0
Format : MPEG-4 Visual
Format profile : Simple@L3
Format settings, BVOP : No
Format settings, QPel : No
Format settings, GMC : No warppoints
Format settings, Matrix : Default (H.263)
Codec ID : XVID
Codec ID/Hint : XviD
Duration : 1h 0mn
Bit rate : 1 525 Kbps
Width : 720 pixels
Height : 400 pixels
Display aspect ratio : 16:9
Frame rate : 23.976 fps
Color space : YUV
Chroma subsampling : 4:2:0
Bit depth : 8 bits
Scan type : Progressive
Compression mode : Lossy
Bits/(Pixel*Frame) : 0.221
Stream size : 656 MiB (92%)
Writing library : XviD 1.2.1 (UTC 2008-12-04)
Audio
ID : 1
Format : MPEG Audio
Format version : Version 1
Format profile : Layer 3
Mode : Joint stereo
Mode extension : MS Stereo
Codec ID : 55
Codec ID/Hint : MP3
Duration : 1h 0mn
Bit rate mode : Constant
Bit rate : 128 Kbps
Channel(s) : 2 channels
Sampling rate : 48.0 KHz
Compression mode : Lossy
Stream size : 55.0 MiB (8%)
Alignment : Aligned on interleaves
Interleave, duration : 42 ms (1.00 video frame)
Interleave, preload duration : 504 ms


Последний раз редактировалось: 3232fox (2013-10-05 23:55), всего редактировалось 1 раз
[Торрент-статистика]
[Профиль]  [ЛС] 

Сфинксик

Пол:

Стаж: 3 года 7 месяцев

Сообщений: 1661

Репутация: 1032 [+] [-]

Откуда: г.Раменское

Пост 24-Сен-2013 20:21 (спустя 9 минут)

[Цитировать] 

+.за труды, ну ты меня ошорашил ab я такого не помню, обычно за сериалами слежу, а это даже названия не слышал.

_________________
ЕСЛИ НЕТ СИДОВ НА РАЗДАЧЕ СТУЧИТЕ В ЛИЧКУ В ТЕЧЕНИИ СУТОК ВОССТАНОВЛЮ!!!!
[Торрент-статистика]
[Профиль]  [ЛС] 

тукваква

Пол:

Стаж: 3 года 6 месяцев

Сообщений: 159

Репутация: 909 [+] [-]

Откуда: землянин

Пост 24-Сен-2013 20:30 (спустя 8 минут)

[Цитировать] 

и от меня +

_________________
[Торрент-статистика]
[Профиль]  [ЛС] 

3232fox ®

Пол:

Стаж: 3 года 9 месяцев

Сообщений: 614

Репутация: 423 [+] [-]

Откуда: Крым,Россия

Пост 24-Сен-2013 20:37 (спустя 6 минут)

[Цитировать] 

Спасибки ребята.Закачку проверил всё работает
[Торрент-статистика]
[Профиль]  [ЛС] 
Показать сообщения:    
Ответить на тему

Текущее время: Сегодня 22:20

Часовой пояс: GMT + 4



Вы не можете начинать темы
Вы не можете отвечать на сообщения
Вы не можете редактировать свои сообщения
Вы не можете удалять свои сообщения
Вы не можете голосовать в опросах
Вы не можете прикреплять файлы к сообщениям
Вы не можете скачивать файлы