Сонная Лощина / Sleepy Hollow / 1 сезон / 1-13 из (13) (Лен Уайзман) [2013-2014 г., Драма, мистика, WEBRip] (LostFilm)

Ответить на тему
 
Автор
Сообщение

3232fox ®

Пол:

Стаж: 3 года 9 месяцев

Сообщений: 614

Репутация: 423 [+] [-]

Откуда: Крым,Россия

Пост 20-Сен-2013 23:29

[Цитировать] 

-Сонная Лощина / Sleepy Hollow --Год выпуска: 2013-2014
Страна: США
Жанр: Драма, мистика
Сезон/Серия: Сезон:1 /Серия 1-13 из 13
Продолжительность: 13 х ~ 00:45:00
Перевод: Профессиональный (многоголосый, закадровый)LostFilm--Режиссер: Лен Уайзман--В ролях: Том Мисон, Николь Бахари, Орландо Джонс, Катя Винтер, Меми Уэст, Кристофер МакКоннелл--Описание: В центре сюжета оказывается военнослужащий Икабод Крейн (Том Мисон), который служил под началом генерала Джорджа Вашингтона во время Войны за независимость. На поле боя в поселении Сонная лощина он получает специальное задание убить человека в маске. Крейн выстрелил в него, но тот даже не пошатнулся. Завязалась жестокая драка, в результате которой Икабод отрубает голову своему противнику, но и сам, будучи раненым, падает в предсмертной агонии. Однако, наш герой не умирает, а таинственным образом переносится на 250 лет вперед и оказывается в современном мире. Очень скоро он попадает в полицейский участок, где своей мистической историей ставит следователей в тупик. Одновременно с этим в городе начинают происходить странные убийства, главным подозреваемым в которых становится тот самый безголовый всадник. Детектив полиции Эбби Миллс (Николь Бехари) хочет поймать убийцу и отомстить ему за смерть напарника. Помочь ей в этом нелегком деле и разгадать тайну своего прыжка во времени собирается главный герой Икабод Крейн.-- --Тип релиза: WEBRip
Контейнер: AVI
Видео кодек: XviD
Аудио кодек: MP3 (MPEG1 Layer 3)
Видео: 720x400, 23.976 fps, ~1 343 kbps, 0.194 Bits/(Pixel*Frame)
Аудио: 48 kHz, 2 ch, ~128.00 kbps avg--

Скриншоты

MI

General
Complete name : G:\видео\Sleepy.Hollow.S01.rus.LostFilm.TV\Sleepy.Hollow.S01E01.rus.LostFilm.TV.avi
Format : AVI
Format/Info : Audio Video Interleave
File size : 498 MiB
Duration : 45mn 5s
Overall bit rate : 1 545 Kbps
Writing application : Nandub v1.0rc2
Writing library : Nandub build 1853/release
Video
ID : 0
Format : MPEG-4 Visual
Format profile : Simple@L3
Format settings, BVOP : No
Format settings, QPel : No
Format settings, GMC : No warppoints
Format settings, Matrix : Default (H.263)
Codec ID : XVID
Codec ID/Hint : XviD
Duration : 45mn 5s
Bit rate : 1 343 Kbps
Width : 720 pixels
Height : 400 pixels
Display aspect ratio : 16:9
Frame rate : 23.976 fps
Color space : YUV
Chroma subsampling : 4:2:0
Bit depth : 8 bits
Scan type : Progressive
Compression mode : Lossy
Bits/(Pixel*Frame) : 0.194
Stream size : 433 MiB (87%)
Writing library : XviD 1.2.1 (UTC 2008-12-04)
Audio
ID : 1
Format : MPEG Audio
Format version : Version 1
Format profile : Layer 3
Mode : Joint stereo
Mode extension : MS Stereo
Codec ID : 55
Codec ID/Hint : MP3
Duration : 45mn 5s
Bit rate mode : Variable
Bit rate : 192 Kbps
Channel(s) : 2 channels
Sampling rate : 48.0 KHz
Compression mode : Lossy
Stream size : 61.1 MiB (12%)
Alignment : Aligned on interleaves
Interleave, duration : 24 ms (0.58 video frame)
Interleave, preload duration : 490 ms
Writing library : LAME3.97b
Encoding settings : -m j -V 4 -q 3 -lowpass 18.6 --abr 192


Последний раз редактировалось: 3232fox (2014-01-25 01:04), всего редактировалось 13 раз(а)
[Торрент-статистика]
[Профиль]  [ЛС] 

3232fox ®

Пол:

Стаж: 3 года 9 месяцев

Сообщений: 614

Репутация: 423 [+] [-]

Откуда: Крым,Россия

Пост 26-Сен-2013 22:18 (спустя 5 дней)

[Цитировать] 

Добавлена 3 серия
[Торрент-статистика]
[Профиль]  [ЛС] 

3232fox ®

Пол:

Стаж: 3 года 9 месяцев

Сообщений: 614

Репутация: 423 [+] [-]

Откуда: Крым,Россия

Пост 10-Окт-2013 22:48 (спустя 14 дней)

[Цитировать] 

Добавлена 4 серия
[Торрент-статистика]
[Профиль]  [ЛС] 

Сфинксик

Пол:

Стаж: 3 года 7 месяцев

Сообщений: 1661

Репутация: 1032 [+] [-]

Откуда: г.Раменское

Пост 10-Окт-2013 22:57 (спустя 8 минут)

[Цитировать] 

+. ay

_________________
ЕСЛИ НЕТ СИДОВ НА РАЗДАЧЕ СТУЧИТЕ В ЛИЧКУ В ТЕЧЕНИИ СУТОК ВОССТАНОВЛЮ!!!!
[Торрент-статистика]
[Профиль]  [ЛС] 

sweetline

Стаж: 4 года 9 месяцев

Сообщений: 12

Репутация: 2 [+] [-]

Пост 11-Окт-2013 23:52 (спустя 1 день)

[Цитировать] 

вот блин, а где раздающий????
[Торрент-статистика]
[Профиль]  [ЛС] 

3232fox ®

Пол:

Стаж: 3 года 9 месяцев

Сообщений: 614

Репутация: 423 [+] [-]

Откуда: Крым,Россия

Пост 13-Окт-2013 01:33 (спустя 1 день 1 час)

[Цитировать] 

36008вот блин, а где раздающий????
раздача идет черег DHT,тоесть постоянно и если нет раздающих, всёравно раздаётся
[Торрент-статистика]
[Профиль]  [ЛС] 

3232fox ®

Пол:

Стаж: 3 года 9 месяцев

Сообщений: 614

Репутация: 423 [+] [-]

Откуда: Крым,Россия

Пост 16-Окт-2013 23:11 (спустя 3 дня)

[Цитировать] 

Добавлена 6 серия
[Торрент-статистика]
[Профиль]  [ЛС] 

3232fox ®

Пол:

Стаж: 3 года 9 месяцев

Сообщений: 614

Репутация: 423 [+] [-]

Откуда: Крым,Россия

Пост 21-Ноя-2013 12:06 (спустя 1 месяц 4 дня)

[Цитировать] 

Конец
[Торрент-статистика]
[Профиль]  [ЛС] 
Показать сообщения:    
Ответить на тему

Текущее время: Сегодня 18:24

Часовой пояс: GMT + 4



Вы не можете начинать темы
Вы не можете отвечать на сообщения
Вы не можете редактировать свои сообщения
Вы не можете удалять свои сообщения
Вы не можете голосовать в опросах
Вы не можете прикреплять файлы к сообщениям
Вы не можете скачивать файлы