Молокососы / Skins / Сезон: 1 / Серии: 1-9 из 9 (Саймон Мэсси / Simon Massey, Гарри Энфилд / Harry Enfield, Айша Рафаеле / Aysha Rafaele) [2007 г., драма, комедия, HDTVRip] (MTV)

Ответить на тему
 
Автор
Сообщение

TiZAr ®

Пол:

Стаж: 3 года 3 месяца

Сообщений: 836

Репутация: 1157 [+] [-]

Откуда: Россия

Пост 12-Сен-2013 23:26

[Цитировать] 

Молокососы / Skins
«A group of optimistic kids who grab life by the balls.»
- Страна: Великобритания
Жанр: драма, комедия
Год выпуска: 2007
Продолжительность серии: ~ 00:45:00
Перевод: Профессиональный (многоголосый, закадровый) (MTV)
Субтитры: русские, английские
Режиссер: Саймон Мэсси / Simon Massey, Гарри Энфилд / Harry Enfield, Айша Рафаеле / Aysha Rafaele- -В ролях:
Кая Скоделарио (Effy Stonem), Джозеф Демпси (Chris Miles), Майк Бэйли (Sid Jenkins), Эйприл Пирсон (Michelle Richardson), Николас Холт (Tony Stonem), Ларисса Уилсон (Jal Fazer), Дев Патель (Anwar Kharral), Митч Хьюер (Maxxie Oliver), Уилл Меррик (Alo Creevey), Фрейя Мавор (Mini McGuinness), Лайя Льюис (Liv Malone), Олли Барбьери (JJ Jones)
Описание:
Они - подростки, дети современной Британии, со своими проблемами и радостями жизни. Переходный возраст, формирование личности, проявление характера. Секс, наркотики, вечеринки и вызов всему сознательному миру. Они не признают правила, мораль и принципы обычной жизни. Они хотят быть независимыми и делать только то, что хочется им самим. Им плевать на порядок и общественные устои. Они - новое поколение.

Качество: HDTVRip
Контейнер: AVI
Видео: XviD, 624x352 (1.78:1), 1247 kbps, 25 fps, 0,227 bpp
Аудио №1: MP3 / 2.0 / 48 kHz / 128 kbps /
Аудио №2: MP3 / 2.0 / 48 kHz / 128 kbps /

Скриншоты:

Media Info

Format : AVI
Format/Info : Audio Video Interleave
File size : 497 MiB
Duration : 45mn 46s
Overall bit rate : 1 518 Kbps
Writing application : VirtualDubMod 1.5.10.2 (build 2540/release)
Writing library : VirtualDubMod build 2540/release
Video
ID : 0
Format : MPEG-4 Visual
Format profile : Advanced Simple@L5
Format settings, BVOP : 1
Format settings, QPel : No
Format settings, GMC : No warppoints
Format settings, Matrix : Default (MPEG)
Codec ID : XVID
Codec ID/Hint : XviD
Duration : 45mn 46s
Bit rate : 1 247 Kbps
Width : 624 pixels
Height : 352 pixels
Display aspect ratio : 16:9
Frame rate : 25.000 fps
Color space : YUV
Chroma subsampling : 4:2:0
Bit depth : 8 bits
Scan type : Progressive
Compression mode : Lossy
Bits/(Pixel*Frame) : 0.227
Stream size : 408 MiB (82%)
Writing library : XviD 1.2.1 (UTC 2008-12-04)
Audio #1
ID : 1
Format : MPEG Audio
Format version : Version 1
Format profile : Layer 3
Mode : Joint stereo
Mode extension : MS Stereo
Codec ID : 55
Codec ID/Hint : MP3
Duration : 45mn 45s
Bit rate mode : Constant
Bit rate : 128 Kbps
Channel(s) : 2 channels
Sampling rate : 48.0 KHz
Compression mode : Lossy
Stream size : 41.9 MiB (8%)
Alignment : Aligned on interleaves
Interleave, duration : 40 ms (1.00 video frame)
Interleave, preload duration : 504 ms
Audio #2
ID : 2
Format : MPEG Audio
Format version : Version 1
Format profile : Layer 3
Codec ID : 55
Codec ID/Hint : MP3
Duration : 45mn 45s
Bit rate mode : Constant
Bit rate : 128 Kbps
Channel(s) : 2 channels
Sampling rate : 48.0 KHz
Compression mode : Lossy
Stream size : 41.9 MiB (8%)
Alignment : Aligned on interleaves
Interleave, duration : 40 ms (1.00 video frame)
Interleave, preload duration : 504 ms
Writing library : L3.99r
Encoding settings : -m s -V 4 -q 0 -lowpass 17 -b 128

_________________
Не стоит обращать внимания на отсутствие сидов на моих раздачах. Все мои релизы мультитрекерные - нет сидов, включите DHT.
За релизами в HD качестве обращайтесь в личку, либо отписывайтесь в теме.
[Торрент-статистика]
[Профиль]  [ЛС] 
Показать сообщения:    
Ответить на тему

Текущее время: Сегодня 19:34

Часовой пояс: GMT + 4



Вы не можете начинать темы
Вы не можете отвечать на сообщения
Вы не можете редактировать свои сообщения
Вы не можете удалять свои сообщения
Вы не можете голосовать в опросах
Вы не можете прикреплять файлы к сообщениям
Вы не можете скачивать файлы