Ад на колесах / Hell on Wheels/ сезон 3/ 1-10 серия (10) (Дэвид Фон Энкен) [2013 г., Драма, Вестерн, WEB-DLRip] (LostFilm)

Ответить на тему
 
Автор
Сообщение

3232fox ®

Пол:

Стаж: 3 года 9 месяцев

Сообщений: 614

Репутация: 423 [+] [-]

Откуда: Крым,Россия

Пост 12-Сен-2013 14:32

[Цитировать] 

-Ад на колесах/ 3 сезон / 1-10 серия(10) / Hell on Wheels--Год выпуска: 2013
Страна: США
Жанр: Драма, Вестерн
Продолжительность: ~ 00:45:00
Перевод: Профессиональный многоголосый (LostFilm)--Режиссер: Дэвид Фон Энкен--В ролях: Джералд Огер, Julian Schamp, Фил Бурк, Коммон, Бен Эслер, Тед Левайн, Доминик МакЭллигот, Колм Мини, Энсон Маунт, Эдди Спирс--Описание: Главный герой — бывший солдат Конфедерации Каллен Боханнан, — решительно намеренный отомстить за изнасилование и смерть своей любимой жены, для чего он собирается найти и убить солдат Союза, совершивших это преступление. В итоге он оказывается в Небраске, на одном из участков строительства трансконтинентальной железной дороги.--Тип релиза: WEB-DLRip
Контейнер: AVI
Видео кодек: XviD
Аудио кодек: MP3 (MPEG1 Layer 3)
Видео: 720x400 (16:9), 23.976 fps, ~1347 Кбит/с, ~0.220 bit/pixel
Аудио: 48 kHz, MPEG Layer 3, 2 ch, ~128.00 kbps avg--

Скриншоты

MI

General
Complete name : G:\видео\Hell.On.Wheels.S03.rus.LostFilm.TV\Hell.On.Wheels.S03E01.rus.LostFilm.TV.avi
Format : AVI
Format/Info : Audio Video Interleave
File size : 475 MiB
Duration : 43mn 1s
Overall bit rate : 1 544 Kbps
Writing application : Nandub v1.0rc2
Writing library : Nandub build 1853/release
Video
ID : 0
Format : MPEG-4 Visual
Format profile : Simple@L3
Format settings, BVOP : No
Format settings, QPel : No
Format settings, GMC : No warppoints
Format settings, Matrix : Default (H.263)
Codec ID : XVID
Codec ID/Hint : XviD
Duration : 43mn 1s
Bit rate : 1 345 Kbps
Width : 720 pixels
Height : 400 pixels
Display aspect ratio : 16:9
Frame rate : 23.976 fps
Color space : YUV
Chroma subsampling : 4:2:0
Bit depth : 8 bits
Scan type : Progressive
Compression mode : Lossy
Bits/(Pixel*Frame) : 0.195
Stream size : 414 MiB (87%)
Writing library : XviD 1.2.1 (UTC 2008-12-04)
Audio
ID : 1
Format : MPEG Audio
Format version : Version 1
Format profile : Layer 3
Mode : Joint stereo
Codec ID : 55
Codec ID/Hint : MP3
Duration : 43mn 1s
Bit rate mode : Variable
Bit rate : 192 Kbps
Channel(s) : 2 channels
Sampling rate : 48.0 KHz
Compression mode : Lossy
Stream size : 57.2 MiB (12%)
Alignment : Aligned on interleaves
Interleave, duration : 24 ms (0.58 video frame)
Interleave, preload duration : 528 ms
Writing library : LAME3.97b
Encoding settings : -m j -V 4 -q 3 -lowpass 18.6 --abr 192


Последний раз редактировалось: 3232fox (2013-10-09 20:32), всего редактировалось 13 раз(а)
[Торрент-статистика]
[Профиль]  [ЛС] 

Сфинксик

Пол:

Стаж: 3 года 7 месяцев

Сообщений: 1661

Репутация: 1032 [+] [-]

Откуда: г.Раменское

Пост 12-Сен-2013 20:54 (спустя 6 часов)

[Цитировать] 

+..

_________________
ЕСЛИ НЕТ СИДОВ НА РАЗДАЧЕ СТУЧИТЕ В ЛИЧКУ В ТЕЧЕНИИ СУТОК ВОССТАНОВЛЮ!!!!
[Торрент-статистика]
[Профиль]  [ЛС] 

3232fox ®

Пол:

Стаж: 3 года 9 месяцев

Сообщений: 614

Репутация: 423 [+] [-]

Откуда: Крым,Россия

Пост 16-Сен-2013 23:02 (спустя 4 дня)

[Цитировать] 

Добавлено 3-6 серии
[Торрент-статистика]
[Профиль]  [ЛС] 

3232fox ®

Пол:

Стаж: 3 года 9 месяцев

Сообщений: 614

Репутация: 423 [+] [-]

Откуда: Крым,Россия

Пост 19-Сен-2013 21:40 (спустя 2 дня 22 часа)

[Цитировать] 

Добавлено 7 серия
[Торрент-статистика]
[Профиль]  [ЛС] 

ArtZak

Пол:

Стаж: 5 лет 1 месяц

Сообщений: 3008

Репутация: 1363 [+] [-]

Откуда: Россия

Пост 19-Сен-2013 21:45 (спустя 5 минут)

[Цитировать] 

3232fox, оперативно ab
[Торрент-статистика]
[Профиль]  [ЛС] 

3232fox ®

Пол:

Стаж: 3 года 9 месяцев

Сообщений: 614

Репутация: 423 [+] [-]

Откуда: Крым,Россия

Пост 19-Сен-2013 22:12 (спустя 26 минут)

[Цитировать] 

350513232fox, оперативно ab
Проверяю всегда ,что новенького.
[Торрент-статистика]
[Профиль]  [ЛС] 

3232fox ®

Пол:

Стаж: 3 года 9 месяцев

Сообщений: 614

Репутация: 423 [+] [-]

Откуда: Крым,Россия

Пост 25-Сен-2013 22:11 (спустя 5 дней)

[Цитировать] 

Добавлено 8 серия
[Торрент-статистика]
[Профиль]  [ЛС] 

3232fox ®

Пол:

Стаж: 3 года 9 месяцев

Сообщений: 614

Репутация: 423 [+] [-]

Откуда: Крым,Россия

Пост 02-Окт-2013 20:32 (спустя 6 дней)

[Цитировать] 

добавлена 9 серия
[Торрент-статистика]
[Профиль]  [ЛС] 

3232fox ®

Пол:

Стаж: 3 года 9 месяцев

Сообщений: 614

Репутация: 423 [+] [-]

Откуда: Крым,Россия

Пост 09-Окт-2013 20:32 (спустя 7 дней)

[Цитировать] 

Финал
[Торрент-статистика]
[Профиль]  [ЛС] 
Показать сообщения:    
Ответить на тему

Текущее время: Сегодня 20:33

Часовой пояс: GMT + 4



Вы не можете начинать темы
Вы не можете отвечать на сообщения
Вы не можете редактировать свои сообщения
Вы не можете удалять свои сообщения
Вы не можете голосовать в опросах
Вы не можете прикреплять файлы к сообщениям
Вы не можете скачивать файлы