Джо / Jo, сезон: 1, серии: 1-8 из 8 (Шери Фольксон / Sheree Folkson, Кристоффер Нюхольм / Kristoffer Nyholm, Стефан Шварц / Stefan Schwartz) [2013 г., криминал, HDRip] [Первый канал]

Ответить на тему
 
Автор
Сообщение

TiZAr ®

Пол:

Стаж: 3 года 3 месяца

Сообщений: 836

Репутация: 1157 [+] [-]

Откуда: Россия

Пост 08-Сен-2013 23:21

[Цитировать] 

Джо / Jo
Год выпуска: 2013
Страна: Франция, Великобритания
Жанр: криминал
Продолжительность серии: ~46 мин.
Перевод: Профессиональный (многоголосый, закадровый) Первый канал
Режиссер: Шери Фольксон / Sheree Folkson, Кристоффер Нюхольм / Kristoffer Nyholm, Стефан Шварц / Stefan Schwartz
Производство: Österreichischer Rundfunk (ORF), Atlantique Productions, Radio Télévision Belge Francofone (RTBF), Radio Télévision Suisse (RTS), Sat.1, Stromboli Pictures, TF1, The Mattawin Company- -В ролях:
Жан Рено, Джилл Хеннесси, Том Остин, Орла Брэйди, Хейда Рид, Крис Брейзиер, Селин Джонс, Вунми Моссаку, Шон Пертуи, Эрик Эбони и др.
Описание:
Джо Сен-Клер, детектив со стажем, работает в элитном парижском криминальном отделе, расследуя самые сложные убийства в городе. Следуя за Сен-Клером и его неустанным стремлением к справедливости, сериал покажет самые потаенные уголки знаменитых парижских достопримечательностей, таких как: Эйфелева башня, Нотр-Дам, Катакомбы и Вандомская площадь.
Подготовка релиза:


Тип релиза: HDRip
Контейнер: AVI
Видео кодек: XviD
Аудио кодек: MP3 (MPEG1 Layer 3)
Видео: MPEG4, XviD, 720x400 (16:9), 25.000 fps, 1 399 Kbps (0.194 bit/pixel)
Аудио #1: MP3, 48.0 KHz, 2 ch, 128 Kbps, CBR
Аудио #2: MP3, 48.0 KHz, 2 ch, 128 Kbps, CBR

MI

General
Complete name : Jo.s01e01.BDRip.NewStudio.TV.avi
Format : AVI
Format/Info : Audio Video Interleave
File size : 549 MiB
Duration : 46mn 0s
Overall bit rate : 1 669 Kbps
Writing application : VirtualDubMod 1.5.10.2 (build 2540/release)
Writing library : VirtualDubMod build 2540/release
Video
ID : 0
Format : MPEG-4 Visual
Format profile : Advanced Simple@L5
Format settings, BVOP : 2
Format settings, QPel : No
Format settings, GMC : No warppoints
Format settings, Matrix : Default (MPEG)
Codec ID : XVID
Codec ID/Hint : XviD
Duration : 46mn 0s
Bit rate : 1 399 Kbps
Width : 720 pixels
Height : 400 pixels
Display aspect ratio : 16:9
Frame rate : 25.000 fps
Color space : YUV
Chroma subsampling : 4:2:0
Bit depth : 8 bits
Scan type : Progressive
Compression mode : Lossy
Bits/(Pixel*Frame) : 0.194
Stream size : 460 MiB (84%)
Writing library : XviD 64
Audio #1
ID : 1
Format : MPEG Audio
Format version : Version 1
Format profile : Layer 3
Mode : Joint stereo
Mode extension : MS Stereo
Codec ID : 55
Codec ID/Hint : MP3
Duration : 46mn 0s
Bit rate mode : Constant
Bit rate : 128 Kbps
Channel(s) : 2 channels
Sampling rate : 48.0 KHz
Compression mode : Lossy
Stream size : 42.1 MiB (8%)
Alignment : Aligned on interleaves
Interleave, duration : 40 ms (1.00 video frame)
Interleave, preload duration : 504 ms
Audio #2
ID : 2
Format : MPEG Audio
Format version : Version 1
Format profile : Layer 3
Mode : Joint stereo
Mode extension : MS Stereo
Codec ID : 55
Codec ID/Hint : MP3
Duration : 46mn 0s
Bit rate mode : Constant
Bit rate : 128 Kbps
Channel(s) : 2 channels
Sampling rate : 48.0 KHz
Compression mode : Lossy
Stream size : 42.1 MiB (8%)
Alignment : Aligned on interleaves
Interleave, duration : 40 ms (1.00 video frame)
Interleave, preload duration : 504 ms

Скриншоты


Список серий:

  • Notre Dame
  • Place de la Concorde
  • The Invalides
  • Pigalle
  • Place Vendôme
  • Le Marais
  • The Opera
  • The Catacombes

_________________
Не стоит обращать внимания на отсутствие сидов на моих раздачах. Все мои релизы мультитрекерные - нет сидов, включите DHT.
За релизами в HD качестве обращайтесь в личку, либо отписывайтесь в теме.
[Торрент-статистика]
[Профиль]  [ЛС] 
Показать сообщения:    
Ответить на тему

Текущее время: Сегодня 20:29

Часовой пояс: GMT + 4



Вы не можете начинать темы
Вы не можете отвечать на сообщения
Вы не можете редактировать свои сообщения
Вы не можете удалять свои сообщения
Вы не можете голосовать в опросах
Вы не можете прикреплять файлы к сообщениям
Вы не можете скачивать файлы