Остров / To Nisi (Тео Пападоулакис) (сезон 1, серии: 1-19 из 26) [2010 г., Детектив, Драма, TVRip] (Baibako)

Ответить на тему
 
Автор
Сообщение

3232fox ®

Пол:

Стаж: 3 года 8 месяцев

Сообщений: 614

Репутация: 423 [+] [-]

Откуда: Крым,Россия

Пост 26-Авг-2013 01:01

[Цитировать] 

-Остров / To Nisi--Год выпуска: 2010
Страна: Греция
Жанр: Детектив, Драма
Продолжительность: 00:45х 11
Перевод: Профессиональный (многоголосый, закадровый)(Baibako)--Режиссер: Тео Пападоулакис--В ролях: Ольга Дамани, Дина Михаелиди, Тасос Ноусиас, Мария Протопаппа, Александра Сакеларопоулоу--Описание: "Остров" - экранизация популярного романа Виктории Хислоп "Остров. Тайна Софии" (2005), переведенного на 24 языка, в том числе, и на русский. В основе сериала - реальные события начала XX века на острове-лепрозории Спиналонга, куда приезжали доживать свою жизнь люди, болеющие проказой. Маленький скалистый остров, расположенный одновременно так близко, но так далеко о всего оставшегося мира, всегда был олицетворением отверженности. Но даже в этом ужасном и мрачном окружении есть место человеческое надежде, энтузиазму, дружбе и любви. Это история, которая под изумительные греческие саундтреки ведет нас по красивым и диким ландшафтам острова Крит и позволяет увидеть удивительные судьбы жителей острова с 1939 года до наших дней. Сериал стал самым успешным телевизионным событием в истории греческого телевидения и самым дорогим, с бюджетом в 4 млн. евро.--Тип релиза: TVRip
Контейнер: MP4
Видео кодек: H264 (AVC)
Аудио кодек: AAC
Видео: AVC, 720x400 (16/9), 25.000 fps, 1 500 Kbps (0.208 bit/pixel)
Аудио: Аудио 1: AAC LC, 48.0 KHz, 2 ch, 192 Kbps, VBR (Russian)--

Скриншоты

MI

General
Complete name : G:\видео\Остров (BaibaKo)\To.Nisi.s01e01.TVRip.x264.Rus-Gre.BaibaKo.tv.mp4
Format : MPEG-4
Format profile : Base Media
Codec ID : isom
File size : 772 MiB
Duration : 57mn 8s
Overall bit rate : 1 889 Kbps
Encoded date : UTC 2012-07-13 23:59:44
Tagged date : UTC 2012-07-13 23:59:44
Video
ID : 1
Format : AVC
Format/Info : Advanced Video Codec
Format profile : High@L3.1
Format settings, CABAC : Yes
Format settings, ReFrames : 4 frames
Codec ID : avc1
Codec ID/Info : Advanced Video Coding
Duration : 57mn 8s
Bit rate mode : Variable
Bit rate : 1 500 Kbps
Maximum bit rate : 3 876 Kbps
Width : 720 pixels
Height : 400 pixels
Display aspect ratio : 16:9
Frame rate mode : Constant
Frame rate : 25.000 fps
Color space : YUV
Chroma subsampling : 4:2:0
Bit depth : 8 bits
Scan type : Progressive
Bits/(Pixel*Frame) : 0.208
Stream size : 613 MiB (79%)
Writing library : x264 core 125 r2200 999b753
Encoding settings : cabac=1 / ref=3 / deblock=1:1:1 / analyse=0x3:0x113 / me=umh / subme=9 / psy=1 / psy_rd=1.00:0.00 / mixed_ref=1 / me_range=16 / chroma_me=1 / trellis=2 / 8x8dct=1 / cqm=0 / deadzone=21,11 / fast_pskip=1 / chroma_qp_offset=-2 / threads=8 / lookahead_threads=1 / sliced_threads=0 / nr=0 / decimate=1 / interlaced=0 / bluray_compat=0 / constrained_intra=0 / bframes=3 / b_pyramid=2 / b_adapt=2 / b_bias=0 / direct=3 / weightb=1 / open_gop=0 / weightp=2 / keyint=200 / keyint_min=23 / scenecut=40 / intra_refresh=0 / rc=2pass / mbtree=0 / bitrate=1500 / ratetol=1.0 / qcomp=0.60 / qpmin=0 / qpmax=69 / qpstep=4 / cplxblur=20.0 / qblur=0.5 / ip_ratio=1.40 / pb_ratio=1.30 / aq=1:1.00
Encoded date : UTC 2012-07-12 23:35:56
Tagged date : UTC 2012-07-14 00:01:35
Audio #1
ID : 2
Format : AAC
Format/Info : Advanced Audio Codec
Format version : Version 4
Format profile : LC
Format settings, SBR : No
Codec ID : 40
Duration : 57mn 8s
Bit rate mode : Variable
Bit rate : 192 Kbps
Maximum bit rate : 199 Kbps
Channel(s) : 2 channels
Channel positions : Front: L R
Sampling rate : 48.0 KHz
Compression mode : Lossy
Stream size : 78.5 MiB (10%)
Language : Russian
Encoded date : UTC 2012-07-14 00:01:29
Tagged date : UTC 2012-07-14 00:01:35
Audio #2
ID : 3
Format : AAC
Format/Info : Advanced Audio Codec
Format version : Version 4
Format profile : LC
Format settings, SBR : No
Codec ID : 40
Duration : 57mn 8s
Bit rate mode : Variable
Bit rate : 192 Kbps
Maximum bit rate : 198 Kbps
Channel(s) : 2 channels
Channel positions : Front: L R
Sampling rate : 48.0 KHz
Compression mode : Lossy
Stream size : 78.5 MiB (10%)
Language : Greek
Encoded date : UTC 2012-07-14 00:01:33
Tagged date : UTC 2012-07-14 00:01:35


Последний раз редактировалось: 3232fox (2015-01-14 23:53), всего редактировалось 1 раз
[Торрент-статистика]
[Профиль]  [ЛС] 

3232fox ®

Пол:

Стаж: 3 года 8 месяцев

Сообщений: 614

Репутация: 423 [+] [-]

Откуда: Крым,Россия

Пост 09-Сен-2013 21:01 (спустя 14 дней)

[Цитировать] 

Добавлены 12-15 серии
[Торрент-статистика]
[Профиль]  [ЛС] 

Сфинксик

Пол:

Стаж: 3 года 6 месяцев

Сообщений: 1661

Репутация: 1032 [+] [-]

Откуда: г.Раменское

Пост 09-Сен-2013 21:55 (спустя 54 минуты)

[Цитировать] 

+. ay

_________________
ЕСЛИ НЕТ СИДОВ НА РАЗДАЧЕ СТУЧИТЕ В ЛИЧКУ В ТЕЧЕНИИ СУТОК ВОССТАНОВЛЮ!!!!
[Торрент-статистика]
[Профиль]  [ЛС] 

3232fox ®

Пол:

Стаж: 3 года 8 месяцев

Сообщений: 614

Репутация: 423 [+] [-]

Откуда: Крым,Россия

Пост 11-Сен-2013 00:05 (спустя 1 день 2 часа)

[Цитировать] 

34406+. ay
aa
[Торрент-статистика]
[Профиль]  [ЛС] 

3232fox ®

Пол:

Стаж: 3 года 8 месяцев

Сообщений: 614

Репутация: 423 [+] [-]

Откуда: Крым,Россия

Пост 14-Янв-2015 23:54 (спустя 1 год 4 месяца)

[Цитировать] 

Наконец, ещё перевели пару серий, 16-19
[Торрент-статистика]
[Профиль]  [ЛС] 
Показать сообщения:    
Ответить на тему

Текущее время: Сегодня 06:26

Часовой пояс: GMT + 4



Вы не можете начинать темы
Вы не можете отвечать на сообщения
Вы не можете редактировать свои сообщения
Вы не можете удалять свои сообщения
Вы не можете голосовать в опросах
Вы не можете прикреплять файлы к сообщениям
Вы не можете скачивать файлы