Банши / Banshee / Сезон: 1 / Серии: 1-10 из 10 (Мигель Сапочник, Грег Яйтанс) [2013, драма, криминал, детектив, HDTVRip] DVO (NewStudio)

Ответить на тему
 
Автор
Сообщение

awk05 ®

Пол:

Стаж: 4 года 5 месяцев

Сообщений: 1352

Репутация: 275 [+] [-]

Откуда: Западная Украина Ривне

Пост 01-Май-2013 01:33

[Цитировать] 

--Банши / Banshee-- Год выпуска: 2013
Страна: США (The CW)
Жанр: драма, криминал, детектив
Сезон/Серия: Сезон:1 /Серия 1-10 из 10
Продолжительность: ~ 00:44:00
Субтитры: отсутствуют
Перевод: Профессиональный (двухголосый, закадровый) NewStudio+ Original--Режиссер:Мигель Сапочник, Грег Яйтанс--В ролях: Энтони Старр, Ивана Миличевич, Рас Блэквелл, Мэтт Сервитто, Триесте Келли Данн, Райанн Шэйн, Фрэнки Фэйзон, Деметриус Гросс, Мэттью Ройч, Хун Ли и др.--Описание: Лукас Худ - профессиональный грабитель. Отсидев 15 лет в тюрьме, он приезжает в Банши - маленький городишко в штате Пенсильвания. Едва ступив на местную землю, он направляется в бар. Между прибывшим накануне незнакомцем и парой здешних гангстеров тотчас завязывается потасовка. В итоге, все они лежат, наевшись пуль. Не растерявшийся Лукас обыскивает трупы и обнаруживает в кармане неизвестного документы вкупе с жетоном шерифа, наделяющие предъявителя определенной властью.
Отныне Лукас Худ - новоиспеченный шериф городка Банши. Выяснилось, что его девушка, не дождавшись суженого, выскочила замуж за прокурора, а местный главарь мафии наглого выскочку терпеть не собирается. Так что у шерифа-самозванца дел по горло. Слово "порядок" он понимает по-своему. Чтобы истребить мафиозный клан Банши и избежать законной кары, Лукас вынужден переступать через законы. Через десятки законов, если уж быть абсолютно честным. В нем просыпается защитник правопорядка.--Релиз:
Озвучка: Кирилл Туранский, Анна Тух
Перевод: weirdie
Подготовка видео: Koss
Работа со звуком: Baggio
Постер: Vortex--
--Качество: HDTVRip
Формат: AVI
Видео кодек: XviD
Аудио кодек: MP3
Видео: 720x400 (16/9), 23.976 fps, ~1739 Kbps (0.252 bit/pixel)
Аудио (rus): 48 kHz, MPEG Layer 3, 2 ch, ~128.00 kbps avg
Аудио 2 (eng): 48 kHz, MPEG Layer 3, 2 ch, ~128.00 kbps avg-- --

MediaInfo

Расположение: E:\Сериалы новые\Банши (Сезон 1) NewStudio\Banshee.s01e01.HDTVRip.NewStudio.TV.avi
Имя файла: Banshee.s01e01.HDTVRip.NewStudio.TV.avi
Формат файла: .avi (AVI)
Размер файла: 700.00 MB
Длительность: 48mn 42s
Навигация по главам: Нет
Bitrate (все потоки): 2 009 Kbps
...при помощи: VirtualDubMod 1.5.10.2 (build 2540/release)
...с использованием: VirtualDubMod build 2540/release
Название: Banshee.s01e03.HDTVRip.NewStudio.TV
Тип потока: Видео
Длительность: 00:48:42
Кодек: MPEG-4 Visual
Кодек/Профиль: Advanced Simple@L5
Кодек/ID: XVID
Размеры изображения: 720 x 400 (16:9)
Частота кадров: 23.976 fps
Размер потока: 606 MiB (87%)
Битрейт: 1 739 Kbps
Цветовое пространство: YUV
Тип развёртки: Progressive
Bits/(Pixel*Frame): 0.252
Глубина пикселя: 8 bits
Библиотека кодирования: XviD 65
Тип потока: Звук #1
Длительность: 00:48:42.600
Кодек: MPEG Audio
Кодек/ID: 55
Частота дискретизации: 48.0 KHz
Каналы: 2 channels
Битрейт: 128 Kbps
Тип битрейта: Constant
Размер потока: 44.6 MiB (6%)
Тип потока: Звук #2
Длительность: 00:48:42.600
Кодек: MPEG Audio
Кодек/ID: 55
Частота дискретизации: 48.0 KHz
Каналы: 2 channels
Битрейт: 128 Kbps
Тип битрейта: Constant
Размер потока: 44.6 MiB (6%)

Скриншоты


-

_________________
[Торрент-статистика]
[Профиль]  [ЛС] 
Показать сообщения:    
Ответить на тему

Текущее время: Сегодня 20:30

Часовой пояс: GMT + 4



Вы не можете начинать темы
Вы не можете отвечать на сообщения
Вы не можете редактировать свои сообщения
Вы не можете удалять свои сообщения
Вы не можете голосовать в опросах
Вы не можете прикреплять файлы к сообщениям
Вы не можете скачивать файлы