Ад на колесах/2 сезон/ 1-10 серия(10) / Hell on Wheels (Дэвид Фон Энкен) [2012 г., Драма, Вестерн, WEB-DLRip]

Ответить на тему
 
Автор
Сообщение

3232fox ®

Пол:

Стаж: 3 года 9 месяцев

Сообщений: 614

Репутация: 423 [+] [-]

Откуда: Крым,Россия

Пост 09-Июл-2013 20:16

[Цитировать] 

-Ад на колесах/ 2 сезон / 1-10 серия(10) / Hell on Wheels-Год выпуска: 2012
Страна: США
Жанр: Драма, Вестерн
Продолжительность: 00:45:00х10/9-10 серии 1:30:00
Перевод: Профессиональный (многоголосый, закадровый)[LostFilm]-Режиссер: Дэвид Фон Энкен-В ролях: Джералд Огер, Julian Schamp, Фил Бурк, Коммон, Бен Эслер, Тед Левайн, Доминик МакЭллигот, Колм Мини, Энсон Маунт, Эдди Спирс-Описание: Главный герой — бывший солдат Конфедерации Каллен Бохэнен, решительно намеренный отомстить за изнасилование и смерть своей любимой жены, для чего он собирается найти и убить солдат Союза, совершивших это преступление. В итоге он оказывается в Небраске, на одном из участков строительства трансконтинентальной железной дороги.-
Тип релиза: WEB-DLRip
Контейнер: AVI
Видео кодек: DivX
Аудио кодек: MP3 (MPEG1 Layer 3)
Видео: 624x352 (16:9), 23.976 fps, ~1200 kbps, ~0.220 bit/pixel
Аудио: 48 kHz, MPEG Layer 3, 2 ch, ~128.00 kbps avg-

MI

General
Complete name : G:\видео\Hell.on.Wheels.s02.LostFilm\Hell.on.Wheels.s02e01.LostFilm.avi
Format : AVI
Format/Info : Audio Video Interleave
File size : 440 MiB
Duration : 42mn 56s
Overall bit rate : 1 434 Kbps
Writing application : VirtualDubMod 1.5.10.2 (build 2540/release)
Writing library : VirtualDubMod build 2540/release
Video
ID : 0
Format : MPEG-4 Visual
Format profile : Advanced Simple@L5
Format settings, BVOP : Yes
Format settings, QPel : No
Format settings, GMC : No warppoints
Format settings, Matrix : Custom
Codec ID : XVID
Codec ID/Hint : XviD
Duration : 42mn 56s
Bit rate : 1 110 Kbps
Width : 624 pixels
Height : 352 pixels
Display aspect ratio : 16:9
Frame rate : 23.976 fps
Color space : YUV
Chroma subsampling : 4:2:0
Bit depth : 8 bits
Scan type : Progressive
Compression mode : Lossy
Bits/(Pixel*Frame) : 0.211
Stream size : 341 MiB (77%)
Writing library : XviD 65
Audio #1
ID : 1
Format : MPEG Audio
Format version : Version 1
Format profile : Layer 3
Mode : Joint stereo
Mode extension : MS Stereo
Codec ID : 55
Codec ID/Hint : MP3
Duration : 42mn 56s
Bit rate mode : Constant
Bit rate : 128 Kbps
Channel(s) : 2 channels
Sampling rate : 48.0 KHz
Compression mode : Lossy
Stream size : 39.3 MiB (9%)
Alignment : Aligned on interleaves
Audio #2
ID : 2
Format : MPEG Audio
Format version : Version 1
Format profile : Layer 3
Mode : Joint stereo
Mode extension : MS Stereo
Codec ID : 55
Codec ID/Hint : MP3
Duration : 42mn 56s
Bit rate mode : Constant
Bit rate : 128 Kbps
Channel(s) : 2 channels
Sampling rate : 48.0 KHz
Compression mode : Lossy
Stream size : 39.3 MiB (9%)
Alignment : Aligned on interleaves

Скриншоты

[Торрент-статистика]
[Профиль]  [ЛС] 
Показать сообщения:    
Ответить на тему

Текущее время: Сегодня 22:18

Часовой пояс: GMT + 4



Вы не можете начинать темы
Вы не можете отвечать на сообщения
Вы не можете редактировать свои сообщения
Вы не можете удалять свои сообщения
Вы не можете голосовать в опросах
Вы не можете прикреплять файлы к сообщениям
Вы не можете скачивать файлы