Ад на колесах/1 Сезон/ 1-10 Серия(10) / Hell on Wheels (Дэвид Фон Энкен) [2011 г., Вестерн, Драма, WEB-DLRip]

Ответить на тему
 
Автор
Сообщение

3232fox ®

Пол:

Стаж: 3 года 9 месяцев

Сообщений: 614

Репутация: 423 [+] [-]

Откуда: Крым,Россия

Пост 09-Июл-2013 19:54

[Цитировать] 

-Ад на колесах/1 Сезон 1-10 Серия(10) / Hell on Wheels-Год выпуска: 2011
Страна: США
Жанр: вестерн, драма
Продолжительность: 00:45х10
Перевод: Профессиональный (многоголосый, закадровый)LostFilm-Режиссер: Дэвид Фон Энкен-В ролях: Джералд Огер, Джулиан Шамп, Фил Бурк, Коммон, Бен Эслер, Тед Левайн, Доминик МакЭллигот, Колм Мини, Энсон Маунт, Эдди Спирс-Описание: В центре сюжета вестерна — бывший солдат Конфедерации Каллен Бохэнен, решительно настроенный отомстить за изнасилование и убийство своей любимой жены. Он пытается выследить и убить солдат Союза, совершивших это, и его поиски приводят его в Небраску, на одном из участков строительства трансконтинентальной железной дороги.-Тип релиза: WEB-DLRip
Контейнер: AVI
Видео кодек: XviD
Аудио кодек: MP3 (MPEG1 Layer 3)
Видео: 720x400, 23.976 fps, ~1729 kbps
Аудио: 48 kHz, 2 ch, ~128 kbps-

MI

G:\видео\Hell.on.Wheels.s01.LostFilm\Hell.on.Wheels.S01E01.rus.LostFilm.TV.avi
General
Complete name : G:\видео\Hell.on.Wheels.s01.LostFilm\Hell.on.Wheels.S01E01.rus.LostFilm.TV.avi
Format : AVI
Format/Info : Audio Video Interleave
File size : 664 MiB
Duration : 45mn 11s
Overall bit rate : 2 056 Kbps
Writing application : Nandub v1.0rc2
Writing library : Nandub build 1853/release
Video #0
ID : 0
Format : MPEG-4 Visual
Format profile : Simple@L3
Format settings, BVOP : No
Format settings, QPel : No
Format settings, GMC : No warppoints
Format settings, Matrix : Default (H.263)
Codec ID : XVID
Codec ID/Hint : XviD
Duration : 45mn 11s
Bit rate : 1 838 Kbps
Width : 720 pixels
Height : 400 pixels
Display aspect ratio : 16:9
Frame rate : 23.976 fps
Resolution : 8 bits
Colorimetry : 4:2:0
Scan type : Progressive
Bits/(Pixel*Frame) : 0.266
Stream size : 594 MiB (89%)
Writing library : XviD 1.2.1 (UTC 2008-12-04)
Audio #1
ID : 1
Format : MPEG Audio
Format version : Version 1
Format profile : Layer 3
Mode : Joint stereo
Format_Settings_ModeExtension : MS Stereo
Codec ID : 55
Codec ID/Hint : MP3
Duration : 45mn 11s
Bit rate mode : Constant
Bit rate : 128 Kbps
Channel(s) : 2 channels
Sampling rate : 48.0 KHz
Stream size : 41.4 MiB (6%)
Alignment : Aligned on interleaves

Скриншоты

[Торрент-статистика]
[Профиль]  [ЛС] 
Показать сообщения:    
Ответить на тему

Текущее время: Сегодня 04:19

Часовой пояс: GMT + 4



Вы не можете начинать темы
Вы не можете отвечать на сообщения
Вы не можете редактировать свои сообщения
Вы не можете удалять свои сообщения
Вы не можете голосовать в опросах
Вы не можете прикреплять файлы к сообщениям
Вы не можете скачивать файлы