Секретные материалы/1-9 сезоны /1-201 серии из 201/ The X-Files (Ким Мэннерс, Роб Боумен, Дэвид Наттер) [1993-2002 г., Триллер/Мистика/Научная фантастика/Драма, DVDRip]

Ответить на тему
 
Автор
Сообщение

3232fox ®

Пол:

Стаж: 3 года 9 месяцев

Сообщений: 614

Репутация: 423 [+] [-]

Откуда: Крым,Россия

Пост 06-Июл-2013 00:29

[Цитировать] 

-Секретные материалы/1-9 сезоны /1-201 серии из 201/1993-2002г./ / The X-Files-Год выпуска: 1993-2002
Страна: США, Канада
Жанр: Триллер/Мистика/Научная фантастика/Драма
Продолжительность: 201 х 00:44
Перевод: Профессиональный (многоголосый, закадровый)RenTV-Режиссер: Ким Мэннерс, Роб Боумен, Дэвид Наттер-В ролях: Дэвид Духовны, Джиллиан Андерсон, Митч Пилегги, Уильям Б. Дэвис, Том Брэйдвуд, Дин Хаглунд, Брюс Харвуд-
Описание: Специальному агенту Дане Скалли, доктору и преподавателю академии ФБР в Вирджинии, поручают работу в паре с агентом Фоксом Малдером над проектом «Секретные материалы», архивом таинственных, нерешенных дел ФБР, которые зачастую связаны с паранормальными явлениями, случаями вампиризма и оборотничества, нападением генетических мутантов, свидетельствами о похищении людей пришельцами…
Малдер верит в пришельцев и пытается убедить скептика Скалли, что не всё и не всегда поддаётся разумному объяснению. В своих дискуссиях Малдер и Скалли не столько стараются убедить друг друга, сколько получают удовольствие от самого общения. Постепенно первоначальное взаимное недоверие перерастает в дружбу, а чуть позже и в более глубокое чувство.
-Тип релиза: DVDRip
Контейнер: AVI
Видео кодек: XviD
Аудио кодек: MP3 (MPEG1 Layer 3)
Видео: 640x368; 23,97fps; XviD, 855-966kbps
Аудио: 48 kHz, MPEG Layer 3, 2 ch, ~192.00 kbps avg-

Доп. информация

The X-Files — культовый американский научно-фантастический телесериал, созданный Крисом Картером. Премьерный показ стартовал в эфире 10 сентября 1993 года и завершился через 9 лет, 19 мая 2002 года. За это время было снято 201 серия.
Шоу было хитом телеканала FOX; его символика и теглайны, такие как
«The Truth Is Out There», «Trust No One», «I Want to Believe» были особенно популярны в поп-культуре 1990-х. Являясь своеобразной вехой эпохи, ключевые сюжетные темы
«Секретных материалов» основываются на недоверии общества к правительству, охватывают теорию заговора и сосредоточены на попытках раскрыть информацию о существовании внеземных цивилизаций.

Скриншоты

MI

G:\видео\X-Files\1 season\1x00 - Pilot (DVDRip, RenTV).avi
General
Complete name : G:\видео\X-Files\1 season\1x00 - Pilot (DVDRip, RenTV).avi
Format : AVI
Format/Info : Audio Video Interleave
File size : 348 MiB
Duration : 46mn 12s
Overall bit rate : 1 051 Kbps
Movie name : Pilot 1x79
Director : explorer
Writing application : VirtualDubMod 1.5.10.2 (build 2542/release)
Writing library : VirtualDubMod build 2542/release
Copyright : (c)1993 Twentieth Century Fox Film Corporation
Video #0
ID : 0
Format : MPEG-4 Visual
Format profile : Advanced Simple@L5
Format settings, BVOP : No
Format settings, QPel : No
Format settings, GMC : No warppoints
Format settings, Matrix : Default (H.263)
Codec ID : XVID
Codec ID/Hint : XviD
Duration : 46mn 12s
Bit rate : 850 Kbps
Width : 640 pixels
Height : 480 pixels
Display aspect ratio : 4:3
Frame rate : 25.000 fps
Original frame rate : 23.976 fps
Resolution : 8 bits
Colorimetry : 4:2:0
Scan type : Progressive
Bits/(Pixel*Frame) : 0.111
Stream size : 281 MiB (81%)
Writing library : XviD 1.0.3 (UTC 2004-12-20)
Audio #1
ID : 1
Format : MPEG Audio
Format version : Version 1
Format profile : Layer 3
Codec ID : 55
Codec ID/Hint : MP3
Duration : 46mn 12s
Bit rate mode : Constant
Bit rate : 192 Kbps
Channel(s) : 2 channels
Sampling rate : 48.0 KHz
Stream size : 63.5 MiB (18%)
Alignment : Aligned on interleaves
Interleave, duration : 40 ms (1.00 video frame)
Interleave, preload duration : 504 ms
Writing library : LAME3.91
Encoding settings : -m s -V 4 -q 2 -lowpass 18.7 -b 192
Language : Undefined
[Торрент-статистика]
[Профиль]  [ЛС] 
Показать сообщения:    
Ответить на тему

Текущее время: Сегодня 10:54

Часовой пояс: GMT + 4



Вы не можете начинать темы
Вы не можете отвечать на сообщения
Вы не можете редактировать свои сообщения
Вы не можете удалять свои сообщения
Вы не можете голосовать в опросах
Вы не можете прикреплять файлы к сообщениям
Вы не можете скачивать файлы