Революция / Revolution / Сезон: 1 / Серии: 1-20 из 20(Стив Бойум, Джон Фавро) [2012, Фантастика, WEB-DLRip] (Lostfilm)

Ответить на тему
 
Автор
Сообщение

awk05 ®

Пол:

Стаж: 4 года 5 месяцев

Сообщений: 1352

Репутация: 275 [+] [-]

Откуда: Западная Украина Ривне

Пост 28-Май-2013 21:15

[Цитировать] 

-Революция / Revolution-
«15 лет после темноты ... они будут освещать путь.»-
Год выпуска: 2012
Страна: США
Жанр: Фантастика
Продолжительность: 00:43:56
Перевод:Профессиональный многоголосый закадровый (Lostfilm)
Субтитры: Нет
Режиссёр: Стив Бойум, Джон Фавро-В ролях: Шэйн Каллахан, Билли Бёрк, Трэйси Спиридакос, Джанкарло Эспозито, Зак Орт, Дэвид Лайонс-Описание: Был самый обычный вечер. Рейчел Мэтисон занималась своими домашними делами, пока ее пятилетняя дочь Чарли и двухлетний сын играли в комнате. Вдруг пришел ее муж Бен, нагруженный кучей консервированных продуктов. Он был просто не в себе, суетился, просил набрать воду во все имеющиеся в доме емкости. Он говорил, что очень скоро по всей планете отключат электричество, а вместе с ним погибнет весь мир технологий. И он оказался прав…
Спустя 15 лет электричество так и не появилось. С тех пор мир очень изменился, а вместе с ним и пришла новая власть. Семья Бена тоже пострадала от катаклизмов: его жена умерла, а у сына периодически случались приступы астмы. Теперь он живет с новой подругой Мэгги и детьми в деревне в Висконсенте. Но власти решили, что Бен как-то связан с техническим кризисом и собираются выяснить у мужчины ценную для них информацию. Что скрывает Бен, и как он повлиял на случившееся – вот тот вопрос, который следует выяснить полиции и семье Бена.-Сэмпл | | |КиноПоиск-
Качество видео: WEB-DLRip
Формат: AVI
Видеокодек: XviD
Аудиокодек: Mp3
Видео: MPEG-4 Visual at 1915 Кбит/сек, 720 x 400 (1.800) at 23.976 fps
Аудио: MPEG Audio at 128 Кбит/сек, 2 канала, 48,0 КГц

Список серий

01. Пилот (Pilot)
02. Железная хватка (Chained Heat)
03. Без пощады (No Quarter)
04. Чумные псы (The Plague Dogs)
05. Поезд мертвых душ (Soul Train)
06. Секс и наркотики (Sex and Drugs)
07. Детский крестовый поход (The Children's Crusade)
08. Кровные узы (Ties That Bind)
09. Кашмир (Kashmir)
10. Только моя вина (Nobody's Fault But Mine)
11. Удержать позицию (The Stand)
12. Призраки (Ghosts)
13. Старая песня о главном (The Song Remains the Same)
14. Ночь, когда в Джорджии погасли огни (The Night the Lights Went Out in Georgia)
15. Дом (Home)
16. Лодка любви (The Love Boat)
17. Самый длинный день (The Longest Day)
18. Улика (Clue)
19. Дети человеческие (Children of Men)
20. Темная башня (The Dark Tower)

MediaInfo

Расположение: E:\СЕРИАЛЫ\Revolution.S01.LostFilm.TV\Revolution.S01E01.rus.LostFilm.TV.avi
Имя файла: Revolution.S01E01.rus.LostFilm.TV.avi
Формат файла: .avi (AVI)
Размер файла: 638.29 MB
Длительность: 43mn 24s
Навигация по главам: Нет
Bitrate (все потоки): 2 056 Kbps
...при помощи: Nandub v1.0rc2
...с использованием: Nandub build 1853/release
Название: Revolution.S01E01.rus.LostFilm.TV
Тип потока: Видео
Длительность: 00:43:24
Кодек: MPEG-4 Visual
Кодек/Профиль: Simple@L3
Кодек/ID: XVID
Размеры изображения: 720 x 400 (16:9)
Частота кадров: 23.976 fps
Размер потока: 595 MiB (93%)
Битрейт: 1 915 Kbps
Цветовое пространство: YUV
Тип развёртки: Progressive
Bits/(Pixel*Frame): 0.277
Глубина пикселя: 8 bits
Библиотека кодирования: XviD 1.2.1 (UTC 2008-12-04)
Тип потока: Звук #1
Длительность: 00:43:24.144
Кодек: MPEG Audio
Кодек/ID: 55
Частота дискретизации: 48.0 KHz
Каналы: 2 channels
Битрейт: 128 Kbps
Тип битрейта: Constant
Размер потока: 39.7 MiB (6%)
«СЕЗОН 1» «СЕЗОН 2»

_________________
[Торрент-статистика]
[Профиль]  [ЛС] 
Показать сообщения:    
Ответить на тему

Текущее время: Сегодня 06:21

Часовой пояс: GMT + 4



Вы не можете начинать темы
Вы не можете отвечать на сообщения
Вы не можете редактировать свои сообщения
Вы не можете удалять свои сообщения
Вы не можете голосовать в опросах
Вы не можете прикреплять файлы к сообщениям
Вы не можете скачивать файлы