Тринадцатый / XIII / Сезон: 2 / Серии: 1-13 из 13 (Дуан Кларк, Ален Тасма, Брюс МакДональд) [2013 г., боевик, триллер, криминал, детектив, HDRip 400p] DVO (AXN Sci-Fi Россия)

Ответить на тему
 
Автор
Сообщение

awk05 ®

Пол:

Стаж: 4 года 5 месяцев

Сообщений: 1352

Репутация: 275 [+] [-]

Откуда: Западная Украина Ривне

Пост 20-Май-2013 17:20

[Цитировать] 

--Тринадцатый / XIII-- Год выпуска: 2012
Страна: Канада, Франция
Жанр: боевик, триллер, криминал, детектив
Сезон/Серия: Сезон:1 /Серия 1-13 из 13
Продолжительность: 13 ~ 00:45:00 мин
Перевод: Профессиональный двухголосый закадровый
Озвучка / Автор перевода: (AXN Sci-Fi Россия)
Субтитры: нет--Режиссёр: Дуан Кларк, Ален Тасма, Брюс МакДональд--В ролях: Стюарт Таунсенд, Вирджиния Ледуайен, Грег Брайк, Стивен МакХэтти, Паулино Нюнс, Аиша Тайлер, Катерина Мурино--Описание: В самый разгар празднования Дня ветеранов пуля, выпущенная снайпером, сражает женщину-президента США наповал. И сразу же становится очевидным, что тут работает настоящий профессионал – он не только оперативно скрылся, но и не оставил следствию ни единой зацепки. Пока спецслужбы теряются в догадках, лихорадочно пытаясь отыскать убийцу, полиция случайно наталкивается в лесу на подозрительного парашютиста, который находится без сознания. Он ранен, кроме того, не может внятно ответить ни на один вопрос – у молодого человека амнезия. На его груди находят странную татуировка с римским числом «XIII». Теперь «мистеру Х» нужно очень постараться, чтобы доказать свою непричастность к убийству высокопоставленной женщины. В конечном итоге ему все-таки удается раскрыть правительственный заговор и очистить свое имя. Спецслужбы снимают с Тринадцатого все обвинения, освобождая, тем самым, от ответственности. Теперь герой, казалось бы, сможет вернуться к нормальной жизни, но глава секретной службы бросает парня в тюрьму. Сможет ли Тринадцатый выбраться из заточения и восстановить фрагменты из прошлой жизни, о которой ничего не знает? И какова его дальнейшая судьба?-Качество видео: HDRip
Формат видео: AVI
Видео кодек: MPEG4, XviD
Аудио кодек: AC-3
Видео: MPEG4, XviD, 720x400 (16:9), 25.000 fps, 2 000 Kbps (0.278 bit/pixel)
Аудио 1: AC-3, 48.0 KHz, 2 ch, 192 Kbps, CBR, 16 bits [Русский]
Аудио 2: AC-3, 48.0 KHz, 2 ch, 192 Kbps, CBR, 16 bits [Английский] -- --

Список серий

01. Phoenix - Феникс
02. Rampage -Волнение
03. Defender - Защитник
04. Tempest - Буря
05. Joust - Рыцарский поединок
06. Gauntlet - Рукавица
07. Breakout - Резкое изменение цен на бумаги
08. Mousetrap - Мышеловка
09. Pong - Вонь
10. Black Widow - Черная вдова
11. Punchout - Удар
12. Berzerk - Берсерк
13. Battlezone - Зона сражения

MediaInfo

Расположение: E:\СЕРИАЛЫ\XIII The Series Season 2 (AXN Sci-Fi Россия)\XIII.s02e01.rus.eng.CasStudio.TV.avi
Имя файла: XIII.s02e01.rus.eng.CasStudio.TV.avi
Формат файла: .avi (AVI)
Размер файла: 0 Byte(s)
Длительность: 46mn 29s
Навигация по главам: Нет
Bitrate (все потоки): 2 398 Kbps
...при помощи: VirtualDubMod 1.5.10.2 (build 2540/release)
...с использованием: VirtualDubMod build 2540/release
Название: XIII.s02e01.rus.eng.CasStudio.TV
Тип потока: Видео
Длительность: 00:46:29
Кодек: MPEG-4 Visual
Кодек/Профиль: Advanced Simple@L5
Кодек/ID: XVID
Размеры изображения: 720 x 400 (16:9)
Частота кадров: 25.000 fps
Размер потока: 635 MiB (80%)
Битрейт: 1 909 Kbps
Цветовое пространство: YUV
Тип развёртки: Progressive
Bits/(Pixel*Frame): 0.265
Глубина пикселя: 8 bits
Библиотека кодирования: XviD 65
Тип потока: Звук #1
Длительность: 00:46:28.928
Кодек: AC-3
Кодек/ID: 2000
Частота дискретизации: 48.0 KHz
Каналы: 2 channels
Каналы/позиция: Front: L R
Битрейт: 192 Kbps
Тип битрейта: Constant
Размер потока: 63.8 MiB (8%)
Тип потока: Звук #2
Длительность: 00:46:29.040
Кодек: AC-3
Кодек/ID: 2000
Частота дискретизации: 48.0 KHz
Каналы: 2 channels
Каналы/позиция: Front: L R
Битрейт: 192 Kbps
Тип битрейта: Constant
Размер потока: 63.8 MiB (8%)

Скриншоты


«ХІІІ Конспирация»«СЕЗОН 1» «СЕЗОН 2»

_________________
[Торрент-статистика]
[Профиль]  [ЛС] 
Показать сообщения:    
Ответить на тему

Текущее время: Сегодня 20:36

Часовой пояс: GMT + 4



Вы не можете начинать темы
Вы не можете отвечать на сообщения
Вы не можете редактировать свои сообщения
Вы не можете удалять свои сообщения
Вы не можете голосовать в опросах
Вы не можете прикреплять файлы к сообщениям
Вы не можете скачивать файлы