Тринадцатый / XIII / Сезон: 1 / Серии: 1-13 из 13 (Дуан Кларк, Ален Тасма, Брюс МакДональд) [2011 г., боевик, триллер, криминал, детектив, HDRip 400p] (AXN Sci-Fi Россия)

Ответить на тему
 
Автор
Сообщение

awk05 ®

Пол:

Стаж: 4 года 5 месяцев

Сообщений: 1352

Репутация: 275 [+] [-]

Откуда: Западная Украина Ривне

Пост 20-Май-2013 16:25

[Цитировать] 

--Тринадцатый / XIII-- Год выпуска: 2011
Страна: Канада, Франция
Жанр: боевик, триллер, криминал, детектив
Сезон/Серия: Сезон:1 /Серия 1-13 из 13
Продолжительность: 13 ~ 00:45:00 мин
Перевод: Профессиональный двухголосый закадровый
Озвучка / Автор перевода: (AXN Sci-Fi Россия)
Субтитры: нет--Режиссёр: Дуан Кларк, Ален Тасма, Брюс МакДональд--В ролях: Стюарт Таунсенд, Вирджиния Ледуайен, Грег Брайк, Стивен МакХэтти, Паулино Нюнс, Аиша Тайлер, Катерина Мурино--Описание: «XIII» — франко-канадский телесериал, основанный на одноимённом бельгийском комиксе Жана Ван Хамма и Уильяма Вэнса, продолжение мини-сериала XIII: Заговор. В США разразилась трагедия: наемным киллером убита первая женщина, которая смогла занять президентское кресло. Это случилось во время запланированного выступления в День ветеранов. Снайпер произвел всего лишь один четкий выстрел.
На расследование этого громкого преступления брошены лучшие специалисты, но всё тщетно - киллера так и не удалось вычислить. Преступник, совершивший столь дерзкое преступление так и не понес справедливого наказания.
Практически следом за этими трагическими событиями, в близлежащем лесу обнаруживают загадочного парашютиста. Молодой человек серьезно ранен и что самое странное, страдает полной амнезией - он не помнит ни кто он, ни что он здесь делает. Единственная зацепка, которая возможно сможет пролить свет на его личность - это необычная татуировка, красующаяся на его груди: XIII.
Теперь ему не остается ничего, как попытаться найти себя и вспомнить кто же он на самом деле. И приложить максимум усилий, чтобы пролить свет на произошедшие события…--Качество видео: HDRip
Формат видео: AVI
Видео кодек: MPEG4, XviD
Аудио кодек: AC-3
Видео: MPEG4, XviD, 720x400 (16:9), 25.000 fps, 2 000 Kbps (0.278 bit/pixel)
Аудио 1: AC-3, 48.0 KHz, 2 ch, 192 Kbps, CBR, 16 bits [Русский]
Аудио 2: AC-3, 48.0 KHz, 2 ch, 192 Kbps, CBR, 16 bits [Английский] -- --

MI

Расположение: E:\СЕРИАЛЫ\XIII The Series Season 1\XIII.s01e01.rus.eng.avi
Имя файла: XIII.s01e01.rus.eng.avi
Формат файла: .avi (AVI)
Размер файла: 0 Byte(s)
Длительность: 43mn 34s
Навигация по главам: Нет
Bitrate (все потоки): 2 398 Kbps
...при помощи: VirtualDubMod 1.5.10.2 (build 2540/release)
...с использованием: VirtualDubMod build 2540/release
Название: XIII.s01e01.rus.eng
Тип потока: Видео
Длительность: 00:43:34
Кодек: MPEG-4 Visual
Кодек/Профиль: Advanced Simple@L5
Кодек/ID: XVID
Размеры изображения: 720 x 400 (16:9)
Частота кадров: 25.000 fps
Размер потока: 623 MiB (83%)
Битрейт: 2 000 Kbps
Цветовое пространство: YUV
Тип развёртки: Progressive
Bits/(Pixel*Frame): 0.278
Глубина пикселя: 8 bits
Библиотека кодирования: XviD 65
Тип потока: Звук #1
Длительность: 00:43:34.432
Кодек: AC-3
Кодек/ID: 2000
Частота дискретизации: 48.0 KHz
Каналы: 2 channels
Каналы/позиция: Front: L R
Битрейт: 192 Kbps
Тип битрейта: Constant
Размер потока: 59.8 MiB (8%)
Тип потока: Звук #2
Длительность: 00:43:34.440
Кодек: AC-3
Кодек/ID: 2000
Частота дискретизации: 48.0 KHz
Каналы: 2 channels
Каналы/позиция: Front: L R
Битрейт: 192 Kbps
Тип битрейта: Constant
Размер потока: 59.8 MiB (8%)

Список серий

01. Пилот (Pilot)
02. Грин Фолз (Green Falls)
03. Изоляция (Lockdown)
04. Ирландская работа (The Irish Version)
05. Тренировочный лагерь (Training Camp)
06. Коста Верде (Costa Verde)
07. Откат (Undertow)
08. Охота на стороне (Hunting Party)
09. Ограбление банка (The Bank Job)
10. Поезд (The Train)
11. Бункер (The Bunker)
12. Ключ (The Key)
13. Разоблачение(Revelation)

Кадры из фильма



«ХІІІ Конспирация»«СЕЗОН 1» «СЕЗОН 2»

_________________
[Торрент-статистика]
[Профиль]  [ЛС] 
Показать сообщения:    
Ответить на тему

Текущее время: Сегодня 10:56

Часовой пояс: GMT + 4



Вы не можете начинать темы
Вы не можете отвечать на сообщения
Вы не можете редактировать свои сообщения
Вы не можете удалять свои сообщения
Вы не можете голосовать в опросах
Вы не можете прикреплять файлы к сообщениям
Вы не можете скачивать файлы