Континуум / Continuum / Сезон: 2 / Серии: 1-13 (13) (Пэт Уильямс, Джон Кассар) [2013 г., фантастика, триллер, драма, WEB-DLRip] MVO (LostFilm)

Ответить на тему
 
Автор
Сообщение

awk05 ®

Пол:

Стаж: 4 года 5 месяцев

Сообщений: 1352

Репутация: 275 [+] [-]

Откуда: Западная Украина Ривне

Пост 20-Май-2013 14:37

[Цитировать] 

-Континуум / Continuum-«Будущее находится в ее руках»- Год выпуска: 2013
Страна: США, Канада | Showcase
Жанр: фантастика, триллер, драма
Продолжительность: ~ 44 минуты
Перевод: Профессиональный (многоголосый, закадровый) - LostFilm
Субтитры: Нет
Режиссёры: Пэт Уильямс, Джон Кассар-В ролях: Рэйчел Николс, Виктор Уэбстер, Эрик Кнудсен, Стефен Лобо, Ричард Хэрмон, Брайан Маркинсон, Дженнифер Спенс, Джон Генри Рирдон, Роджер Р. Кросс, Лекса Дойг и др.-Описание: Земля – больше не прекрасная зеленная планета со своей неповторимой флорой и фауной. В недалеком будущем она превратиться в территорию, где правят корпорации, а все натуральное и естественное – лишь далекие воспоминания…
Но даже в этих условиях безнадежности и мрака появляются люди, готовые идти против системы. Группа фанатиков с громким названием «Освобождение» пытаются свергнуть власть корпораций, однако для этого они используют не самые гуманные методы. Из-за организованных ими терактов все члены группы приговорены к казни. Чтобы избежать смерти, «Освобождение» совершает прыжок во времени и оказывается в прошлом, а точнее в 2012 году. Вместе с ними на 70 лет назад возвращается и Кира Камерон – полицейский детектив, работающий над их делом. Теперь у каждого из «пришельцев» своя задача: у террористов предотвратить развитие корпораций, а у Киры – остановить террористов.-Качество: WEB-DLRip
Формат: AVI
Видео кодек: XviD
Аудио кодек: MP3
Видео: 720x400 (16:9), 23.976 fps, ~1320 kbps, ~0.191 bit/pixel
Аудио Rus: 48 kHz, 2 ch, ~128 kbps |LostFilm|
Аудио Eng: 48 kHz, 2 ch, ~128 kbps |Original|- -КиноПоиск/Сэмпл-5 июня 2013 года кабельный канал «Континуума» — Showcase — заказал производство третьего сезона выход которого запланирован на 2014 год.

Главные и второстепенные герои

Исполнители главных ролей
Рэйчел Николс — Кира Кэмерон
Эрик Кнудсен — Алек Садлер
Виктор Вебстер — Карлос Фоннегра
Стефен Лобо — Мэттью Келлог
Роджер Кросс — Трэвис Верта
Лекса Дойг — Соня Вэлентайн
Тони Амендола — Эдуард Кагаме
Омари Ньютон — Лукас Ингрэм
Лавия Петерсон — Жасмин Гарза
Дженнифер Спенс — Бетти Робертсон
Брайан Маркинсон — Диллон
Второстепенные герои
Николас Леа — Агент Гардинер
Джон Рирдон — Грэг Кэмерон
Шон Майкл Кер — Сэм Кэмерон
Заф Пару — Оскар
Кэйтлин Кромуэлл — Елена
Терри Чен — Кёртис Чен
Майк Допуд — Стефан Яворский
Уильям Дэвис — Алек Садлер (из будущего)
Джанет Киддер — Энн Садлер
Майкл Роджерс — Роланд Рэндол
Ричард Хэрмон — Джулиан Рэндол
В телесериале снимается группа актёров из сериала «Звёздные врата»:Тони Амендола — Мастер Бра’так (Звёздные врата: SG-1), Дэвид Найкл — доктор Радек Зеленка (Звездные врата: Атлантида), Лекса Дойг — доктор Кэролин Лэм (Звёздные врата: SG-1), Дженнифер Спенс — доктор Лиза Парк (Звездные врата: Вселенная), Майк Допуд — Варро (Звездные врата: Вселенная).

Список серий

01 - Второй шанс / Second Chances
02 - Доля секунды / Split Second
03 - Переосмысление / Second Thoughts
04 - Вторая кожа / Second Skin
05 - Взгляд со стороны / Second Opinion
06 - Другая правда / Second Truths
07 - Вторая степень / Second Degree
08 - Второе начало / Second Listen
09 - Секунды / Seconds
10 - Вторая волна / Second Wave
11 - Двойной обман / Second Guess
12 - Предпоследний / Second Last
13 - Второй раз / Second Time

Скриншоты


MediaInfo

Расположение: E:\Сериалы новые\Continuum.s02.LostFilm\Continuum.s02e01.LostFilm.avi
Имя файла: Continuum.s02e01.LostFilm.avi
Формат файла: .avi (AVI)
Размер файла: 0 Byte(s)
Длительность: 44mn 0s
Навигация по главам: Нет
Bitrate (все потоки): 1 590 Kbps
...при помощи: VirtualDubMod 1.5.10.2 (build 2540/release)
...с использованием: VirtualDubMod build 2540/release
Название: Continuum.s02e01.LostFilm
Тип потока: Видео
Длительность: 00:44:00
Кодек: MPEG-4 Visual
Кодек/Профиль: Advanced Simple@L5
Кодек/ID: XVID
Размеры изображения: 720 x 400 (16:9)
Частота кадров: 23.976 fps
Размер потока: 415 MiB (83%)
Битрейт: 1 320 Kbps
Цветовое пространство: YUV
Тип развёртки: Progressive
Bits/(Pixel*Frame): 0.191
Глубина пикселя: 8 bits
Библиотека кодирования: XviD 73
Тип потока: Звук #1
Длительность: 00:44:00.720
Кодек: MPEG Audio
Кодек/ID: 55
Частота дискретизации: 48.0 KHz
Каналы: 2 channels
Битрейт: 128 Kbps
Тип битрейта: Constant
Размер потока: 40.3 MiB (8%)
Тип потока: Звук #2
Длительность: 00:44:00.720
Кодек: MPEG Audio
Кодек/ID: 55
Частота дискретизации: 48.0 KHz
Каналы: 2 channels
Битрейт: 128 Kbps
Тип битрейта: Constant
Размер потока: 40.3 MiB (8%)

Внимание! Раздача ведётся путём добавления новых серий!

Внимание! Раздача ведётся путём добавления новых серий; при каждом добавлении создётся новый торрент. Чтобы начать докачку новой серии, пользователям необходимо сделать следующее: (1) остановить скачивание, (2) удалить старый торрент у себя из клиента (старые серии удалять не надо), (3) скачать новый торрент и запустить его у себя в клиенте вместо старого, при этом указать клиенту путь в старую папку куда и должно происходить скачивание новых серий.
Ваш клиент при этом должен произвести хеширование (проверку) старой папки (если не производит сам - помогите ему сделать это), и будет докачивать только те серии которых у вас ещё нет. Старые серии при этом не удаляются, а продолжают раздаваться!
Eсли вы уже удалили старые серии, то предотвратить повторную закачку старых серий можно, отжав галочку в соответсвующих местах при запуске нового торрента.

_________________
[Торрент-статистика]
[Профиль]  [ЛС] 
Показать сообщения:    
Ответить на тему

Текущее время: Сегодня 16:38

Часовой пояс: GMT + 4



Вы не можете начинать темы
Вы не можете отвечать на сообщения
Вы не можете редактировать свои сообщения
Вы не можете удалять свои сообщения
Вы не можете голосовать в опросах
Вы не можете прикреплять файлы к сообщениям
Вы не можете скачивать файлы