Вызов / Defiance / Сезон: 1 / Серии: 1-12 (12) (Майкл Нанкин) [2013 г., фантастика, боевик, драма, WEB-DLRip] MVO (BaibaKo)

Ответить на тему
 
Автор
Сообщение

awk05 ®

Пол:

Стаж: 4 года 5 месяцев

Сообщений: 1352

Репутация: 275 [+] [-]

Откуда: Западная Украина Ривне

Пост 11-Май-2013 02:56

[Цитировать] 

-Вызов / Defiance- -Год выпуска: 2013
Страна: США
Жанр: фантастика, боевик, драма
Продолжительность: ~ 00:44:00
Перевод: Профессиональный (многоголосый, закадровый) - BaibaKo
Режиссер: Майкл Нанкин-В ролях:
Грант Боулер, Джули Бенц, Дьюшэйн Уильямс, Тони Карран, Тренна Китинг, Стефани Леонидас, Джейми Мюррэй, Николь Муньос, Джессика Николс, Джастин Рэйн-Описание: Десять лет Землю сотрясали Бледные войны - небывалый доселе конфликт между людьми и инопланетянами, явившимися на "поселение". Система бинарных звезд чужаков эволюционировала в сверхновую, и пришельцы вынуждены были покинуть свой мир. Разгоревшаяся бойня привела к катастрофическим последствиям. Потери с обеих сторон были колоссальными.
Группа солдат земной армии понимает всю бессмысленность взаимного истребления и восстает против собственных командиров. Цепь событий влечет за собой перемирие между враждующими сторонами.
Спустя 15 лет действие сериала перемещается в Сент-Луис, куда экс-солдат Джозеф Нолан приезжает вместе с Айриссой - приемной дочерью-инопланетянкой. Они селятся в городке Вызов, заселенном шестью расами с разных уголков Галактики. Случай распорядился так, что Джозеф вынужден стать местным шерифом и взять разношерстных жителей города под свою опеку. Джозефу предстоит сразиться с неведомыми силами, желающими стереть Вызов с лица Земли..-Качество: WEB-DLRip
Формат: AVI
Видео кодек: XviD
Аудио кодек: MP3
Видео: 720x400 (16/9), 23.976 fps, 1209 Kbps, 0.18 bit/pixel
Аудио (rus): 48 kHz, 2 ch, 128 kbps avg
Аудио 2 (eng): 48 kHz, 2 ch, 128 kbps avg-
Перевод: Татьяна Saavick
Озвучка: Светлана Доманова, Татьяна Оболевич, Владимир Курдов, Олекса Мельник и Алексей Кузнецов
Монтаж: Игорь Лихо
Подготовка видео: Мосенька-
Сэмпл | КиноПоиск
-

Список серий

Эпизод 01 Pilot part 1 / Пилот ч.1
Эпизод 02 Pilot part 2 / Пилот ч.2
Эпизод 03 Down In the Ground Where the Dead Men Go / "Вниз, под землю, куда уходят мертвецы"
Эпизод 04 The Devil In the Dark / Дьявол во мраке
Эпизод 05 A Well Respected Man / Многоуважаемый человек
Эпизод 06 The Serpent's Egg / Яйцо змея
Эпизод 07 Brothers in Arms / Братья по оружию
Эпизод 08 Goodbye, Blue Sky / Прощайте, голубые небеса
Эпизод 09 I Just Wasn't Made for These Times / Я просто не создан для этих времён
Эпизод 10 If I Ever Leave This World Alive / Если я покину этот мир живым
Эпизод 11 The Bride Wore Black / Невеста в черном
Эпизод 12 Past is Prologue / Прошлое - только прелюдия

Скриншоты


MI

Расположение: E:\СЕРИАЛЫ\Вызов (Сезон 1) BaibaKo\Defiance.s01e01.Part 1.WEB-DLRip.BaibaKo.avi
Имя файла: Defiance.s01e01.Part 1.WEB-DLRip.BaibaKo.avi
Формат файла: .avi (AVI)
Размер файла: 0 Byte(s)
Длительность: 45mn 31s
Навигация по главам: Нет
Bitrate (все потоки): 1 537 Kbps
...при помощи: VirtualDubMod 1.5.10.3 | www.virtualdub-fr.org || (build 2550/release)
...с использованием: VirtualDubMod build 2550/release
Название: Defiance.s01e01.Part 1.WEB-DLRip.BaibaKo
Тип потока: Видео
Длительность: 00:45:31
Кодек: MPEG-4 Visual
Кодек/Профиль: Advanced Simple@L5
Кодек/ID: XVID
Размеры изображения: 720 x 400 (16:9)
Частота кадров: 23.976 fps
Размер потока: 394 MiB (79%)
Битрейт: 1 209 Kbps
Цветовое пространство: YUV
Тип развёртки: Progressive
Bits/(Pixel*Frame): 0.175
Глубина пикселя: 8 bits
Библиотека кодирования: XviD 63
Тип потока: Звук #1
Длительность: 00:45:31.896
Кодек: MPEG Audio
Кодек/ID: 55
Частота дискретизации: 48.0 KHz
Каналы: 2 channels
Битрейт: 128 Kbps
Тип битрейта: Constant
Размер потока: 41.7 MiB (8%)
Тип потока: Звук #2
Длительность: 00:45:31.896
Кодек: MPEG Audio
Кодек/ID: 55
Частота дискретизации: 48.0 KHz
Каналы: 2 channels
Битрейт: 128 Kbps
Тип битрейта: Constant
Размер потока: 41.7 MiB (8%)

Раздача ведётся путём добавления новых серий

Раздача ведётся путём добавления новых серий; при каждом добавлении создаётся новый торрент. Чтобы начать докачку новой серии, пользователям необходимо сделать следующее:
(1) остановить скачивание,
(2) удалить старый торрент у себя из клиента (старые серии удалять не надо),
(3) скачать новый торрент и запустить его у себя в клиенте вместо старого, при этом указать клиенту путь в старую папку куда и должно происходить скачивание новых серий.
Ваш клиент при этом должен произвести хеширование (проверку) старой папки (если не производит сам - помогите ему сделать это), и будет докачивать только те серии которых у вас ещё нет. Старые серии при этом не удаляются, а продолжают раздаваться!
Eсли вы уже удалили старые серии, то предотвратить повторную закачку старых серий можно, отжав галочку в соответствующих местах при запуске нового торрента. По возможности, желательно не удалять старые серии как можно дольше чтобы релизёр не столько продолжал раздавать старые серии, а смог сконцентрироваться на новых.

_________________


Последний раз редактировалось: awk05 (2013-10-30 13:56), всего редактировалось 7 раз(а)
[Торрент-статистика]
[Профиль]  [ЛС] 

Chet

Пол:

Стаж: 5 лет 1 месяц

Сообщений: 1866

Репутация: 363 [+] [-]

Откуда: UA

Пост 18-Май-2013 12:31 (спустя 7 дней)

[Цитировать] 

описание поражает воображение
мозги закипели от взрыва бинарных солнц
гневная складка прорезает чело всякого, кто читает о случайно появлении терраформирующих машин
кто от кого и как будет защищать?
[Торрент-статистика]
[Профиль]  [ЛС] 

Snake65

Пол:

Стаж: 4 года

Сообщений: 81

Репутация: 35 [+] [-]

Откуда: Кузбасс

Пост 18-Май-2013 13:50 (спустя 1 час 18 минут)

[Цитировать] 

Описание, конечно мутное, но сериал неплохой. Немного напоминает "Эврику". Тоже папа-шнриф и дочка. Место действия и массовка, правда, изменились, но смотреть можно.
P.S. Неплохо было бы добавить количество серий в раздаче и, по мере добавления новых, указывать это.

_________________
[Торрент-статистика]
[Профиль]  [ЛС] 

leon024

Пол:

Стаж: 3 года 7 месяцев

Сообщений: 1151

Репутация: 632 [+] [-]

Откуда: Россия

Пост 22-Май-2013 21:00 (спустя 4 дня)

[Цитировать] 

я запутался как скачивать? Зачем удалять?
[Торрент-статистика]
[Профиль]  [ЛС] 

awk05 ®

Пол:

Стаж: 4 года 5 месяцев

Сообщений: 1352

Репутация: 275 [+] [-]

Откуда: Западная Украина Ривне

Пост 22-Май-2013 21:10 (спустя 10 минут)

[Цитировать] 

???????

_________________
[Торрент-статистика]
[Профиль]  [ЛС] 

leon024

Пол:

Стаж: 3 года 7 месяцев

Сообщений: 1151

Репутация: 632 [+] [-]

Откуда: Россия

Пост 22-Май-2013 21:13 (спустя 2 минуты)

[Цитировать] 

так всё сложно
[Торрент-статистика]
[Профиль]  [ЛС] 

awk05 ®

Пол:

Стаж: 4 года 5 месяцев

Сообщений: 1352

Репутация: 275 [+] [-]

Откуда: Западная Украина Ривне

Пост 22-Май-2013 21:42 (спустя 28 минут)

[Цитировать] 

в смысле?

_________________
[Торрент-статистика]
[Профиль]  [ЛС] 
Показать сообщения:    
Ответить на тему

Текущее время: Сегодня 20:36

Часовой пояс: GMT + 4



Вы не можете начинать темы
Вы не можете отвечать на сообщения
Вы не можете редактировать свои сообщения
Вы не можете удалять свои сообщения
Вы не можете голосовать в опросах
Вы не можете прикреплять файлы к сообщениям
Вы не можете скачивать файлы