Угасшие / The Fades / сезон 1, серии 1-6 (6) (Фэррен Блэкберн, Том Шенклэнд) [2011 г., фэнтези, ужасы, драма, HDTVRip & HDRip] (AlexFilm) + Rus Subs

Ответить на тему
 
Автор
Сообщение

3232fox ®

Пол:

Стаж: 3 года 9 месяцев

Сообщений: 614

Репутация: 423 [+] [-]

Откуда: Крым,Россия

Пост 12-Апр-2013 23:42

[Цитировать] 

- -Угасшие / The Fades
1 сезон / 1-6 серии

Год выпуска: 2011
Страна: Великобритания
Жанр: фэнтези, ужасы , драма
Продолжительность: 6 x ~57 мин
Перевод: профессиональный многоголосый закадровый (AlexFilm)
Русские субтитры: есть (Илья Белкин)
Создатель сериала и сценарист: Джек Торн
Режиссеры: Фэррен Блэкберн, Том Шенклэнд
В ролях:
Джонни Харрис (Нил), Иэн де Кестекер (Пол), Даниела Нардини (Хелен), Лили Лавлесс (Анна), Натали Дормер (Сара), Дэниэл Калуя (Мак), Клэр Рашбрук (Мег), Софи Ву (Джей), Крис Мэйсон (Стив), Дженн Мюррэй (Натали), Тео Барклем-Биггз (Филлип Фёрт), Иэн Хэнмор ("Полюс"), Том Эллис (Марк)
Описание:
Два друга, подростки Пол и Мак, не слишком популярны в своей школе. Причём "не слишком" - ещё мягко сказано. Всё разом меняется, когда Пол начинает видеть духов умерших, запертых в нашем мире. Его находит группа чудаков, наблюдающих за духами. Они называюют себя "Ангелиане" и пытаются как-то приставить его к делу. Тем временем, главный злобное умертвие Полюс и его подручные-жмурики пытаются воплотиться, прорваться в мир живых и устроить апокалипсис. Смесь мистической драмы, подростковой комедии и пародии на фильмы ужасов не оставит равнодушными поклонников всех этих жанров, да и просто любителей качественных сериалов. Добавим к этому неподражаемый британский юмор и отличные диалоги - получим новую триллер-трэш-комедию "Угасшие".
Релиз:

Перевод: Илья Белкин
Роли озвучивали:
  • Мила Мирелли
  • Светлана Чистохина
  • Михаил Суслов
  • Александр Дасевич
- -Качество: HDTVRip (1-3) & HDRip (4-6)
Формат: AVI
Видео: 624x352 (1.77:1), 25 fps, XviD build 50 ~1206 kbps avg, 0.22 bit/pixel
Аудио Rus: 48 kHz, MPEG Layer 3, 2 ch, ~128.00 kbps avg
Аудио Eng: 48 kHz, MPEG Layer 3, 2 ch, ~128.00 kbps avg

Скриншоты



MI

Format : AVI
Format/Info : Audio Video Interleave
File size : 600 MiB
Duration : 56mn 47s
Overall bit rate : 1 478 Kbps
Writing application : VirtualDubMod 1.5.10.2 (build 2542/release)
Writing library : VirtualDubMod build 2542/release
Video
ID : 0
Format : MPEG-4 Visual
Format profile : Advanced Simple@L5
Format settings, BVOP : Yes
Format settings, QPel : No
Format settings, GMC : No warppoints
Format settings, Matrix : Default (MPEG)
Codec ID : XVID
Codec ID/Hint : XviD
Duration : 56mn 47s
Bit rate : 1 208 Kbps
Width : 624 pixels
Height : 352 pixels
Display aspect ratio : 16:9
Frame rate : 25.000 fps
Color space : YUV
Chroma subsampling : 4:2:0
Bit depth : 8 bits
Scan type : Progressive
Bits/(Pixel*Frame) : 0.220
Stream size : 490 MiB (82%)
Writing library : XviD 1.2.1 (UTC 2008-12-04)
Audio #1
ID : 1
Format : MPEG Audio
Codec ID : 55
Codec ID/Hint : MP3
Duration : 56mn 47s
Bit rate : 128 Kbps
Channel(s) : 2 channels
Sampling rate : 48.0 KHz
Stream size : 52.0 MiB (9%)
Alignment : Split accross interleaves
Interleave, duration : 40 ms (1.00 video frame)
Interleave, preload duration : 504 ms
Audio #2
ID : 2
Format : MPEG Audio
Format version : Version 1
Format profile : Layer 3
Mode : Joint stereo
Mode extension : MS Stereo
Codec ID : 55
Codec ID/Hint : MP3
Duration : 56mn 47s
Bit rate mode : Constant
Bit rate : 128 Kbps
Channel(s) : 2 channels
Sampling rate : 48.0 KHz
Stream size : 52.0 MiB (9%)
Alignment : Aligned on interleaves
Interleave, duration : 40 ms (1.00 video frame)
Interleave, preload duration : 504 ms
-Внимание! В сериале присутствует ненормативная лексика!-


Последний раз редактировалось: 3232fox (2013-04-13 01:41), всего редактировалось 9 раз(а)
[Торрент-статистика]
[Профиль]  [ЛС] 

3232fox ®

Пол:

Стаж: 3 года 9 месяцев

Сообщений: 614

Репутация: 423 [+] [-]

Откуда: Крым,Россия

Пост 13-Апр-2013 00:27 (спустя 44 минуты)

[Цитировать] 

вотето докрутил, что всплыло это JavaScript .Не вышло я не понял как стекстом быть
[Торрент-статистика]
[Профиль]  [ЛС] 

ArtZak

Пол:

Стаж: 5 лет 1 месяц

Сообщений: 3008

Репутация: 1363 [+] [-]

Откуда: Россия

Пост 13-Апр-2013 00:30 (спустя 3 минуты)

[Цитировать] 

3232fox, ничего - помогу!
[Торрент-статистика]
[Профиль]  [ЛС] 

ArtZak

Пол:

Стаж: 5 лет 1 месяц

Сообщений: 3008

Репутация: 1363 [+] [-]

Откуда: Россия

Пост 13-Апр-2013 00:31 (спустя 23 секунды)

[Цитировать] 

3232fox, главное на раздачу встаньте.
[Торрент-статистика]
[Профиль]  [ЛС] 

3232fox ®

Пол:

Стаж: 3 года 9 месяцев

Сообщений: 614

Репутация: 423 [+] [-]

Откуда: Крым,Россия

Пост 13-Апр-2013 00:33 (спустя 2 минуты)

[Цитировать] 

как текст поднять и описание сделать скрытым
[Торрент-статистика]
[Профиль]  [ЛС] 

3232fox ®

Пол:

Стаж: 3 года 9 месяцев

Сообщений: 614

Репутация: 423 [+] [-]

Откуда: Крым,Россия

Пост 13-Апр-2013 00:35 (спустя 1 минута)

[Цитировать] 

Я пробую за подсказки и помощь спасибо.Что-то сам тут накрутил с полером
[Торрент-статистика]
[Профиль]  [ЛС] 

nova1980

Пол:

Стаж: 5 лет

Сообщений: 820

Репутация: 523 [+] [-]

Откуда: Одесса Мама

Пост 13-Апр-2013 02:03 (спустя 1 час 28 минут)

[Цитировать] 

Чуть подсобил. Взгляните что и как, может что подкорректируете на свой вкус. А то уснуть не мог и нашел себе занятие....
Если что обращайтесь, поможем чем сможем!

_________________
Мои Раздачи
[Торрент-статистика]
[Профиль]  [ЛС] 

3232fox ®

Пол:

Стаж: 3 года 9 месяцев

Сообщений: 614

Репутация: 423 [+] [-]

Откуда: Крым,Россия

Пост 13-Апр-2013 02:08 (спустя 5 минут)

[Цитировать] 

ок, толко бы показали как вышло так круто
[Торрент-статистика]
[Профиль]  [ЛС] 

ArtZak

Пол:

Стаж: 5 лет 1 месяц

Сообщений: 3008

Репутация: 1363 [+] [-]

Откуда: Россия

Пост 13-Апр-2013 03:12 (спустя 1 час 4 минуты)

[Цитировать] 

3232fox, смотрите и учитесь! Я все оформил, как нужно - вот так, примерно, и должна выглядеть раздача. Можете использовать как шаблон.
А чтобы более менее разобраться в ВВ кодах - вот вам темка: http://brodim.com/viewtopic.php?t=265.
[Торрент-статистика]
[Профиль]  [ЛС] 

DarthNihilus

Пол:

Стаж: 5 лет

Сообщений: 1072

Репутация: 166 [+] [-]

Откуда: Антарктида

Пост 13-Апр-2013 14:05 (спустя 10 часов)

[Цитировать] 

мда... судя по описанию...это должно быть эпично...

_________________
[Нет сидов - включите DHT]
[Торрент-статистика]
[Профиль]  [ЛС] 
Показать сообщения:    
Ответить на тему

Текущее время: Сегодня 20:36

Часовой пояс: GMT + 4



Вы не можете начинать темы
Вы не можете отвечать на сообщения
Вы не можете редактировать свои сообщения
Вы не можете удалять свои сообщения
Вы не можете голосовать в опросах
Вы не можете прикреплять файлы к сообщениям
Вы не можете скачивать файлы