Доктор мафии / The Mob Doctor / Сезон: 1 / Серии: 1-13 (13) (Майкл Диннер) [2012 г., драма, WEB-DLRip] DVO (NewStudio)

Ответить на тему
 
Автор
Сообщение

awk05 ®

Пол:

Стаж: 4 года 5 месяцев

Сообщений: 1352

Репутация: 275 [+] [-]

Откуда: Западная Украина Ривне

Пост 27-Фев-2013 22:37

[Цитировать] 

--Доктор мафии/ The Mob Doctor-- Год выпуска: 2012
Страна: США | FOX
Жанр: драма
Продолжительность: ~ 44 минуты
Перевод: Профессиональный (двухголосый, закадровый) - NewStudio
Субтитры: Нет
Режиссёр: Майкл Диннер-В ролях: Джордана Спиро, Желько Иванек, Роберта Чунг, Сэмюэл Медоуз, Адам Харингтон, Стив Микула и другие...-Описание: Для большинства врачей клятва Гиппократа священна. Но для одного доктора из Чикаго, которая оказалась в долгу у мафии, спасение жизней не на первом месте. The Mob Doctor — динамичная медицинская драма про талантливую молодую женщину, которая работает кардиохирургом днем, а ночью становится доктором для мафии, отрабатывая свои долги. Доктор Грейс Девлин — ведущий ординатор в медицинском центре Рузвельта в Чикаго. Умная, уверенная в себе, она один из самых многообещающих молодых хирургов страны. Но семейные узы крепко связивают ее с мафиозным миром чикагского Саутсайда. Чтобы выплатить игорный долг брата, она заключает сделку с дьяволом и соглашается работать на мафию.-Качество: WEB-DLRip
Формат: AVI
Видео кодек: XviD
Аудио кодек: MP3
Видео: 720x400 (16:9), 23.976 fps, ~1450 kbps, ~0.210 bit/pixel
Аудио Rus: 48 kHz, 2 ch, ~128 kbps |NewStudio|
Аудио Eng: 48 kHz, 2 ch, ~128 kbps |Original|-
Озвучка: Константин Погодаев, Анна Тух (БЯКО Рекордс)
Перевод: Альберт Фасхутдинов
Подготовка видео: Koss
Работа со звуком: Baggio
Постер: Vortex-
- -

Список серий

1. Pilot / Пилот
2. Family Secrets / Семейные секреты
3. Protect and Serve / Служить и защищать
4. Change of Heart / Изменение сердца
5. Legacy / Наследие
6. Complications / Осложнения
7. Turf War / Торф войны
8. Game Changers / Игровые установки
9. Fluid Dynamics / Динамика жидкостей
10. Confessions / Признания
11. Sibling Rivalry / Соперничество между детьми
12. Resurrection / Воскресение
13. Life and Death / Жизнь и смерть

Скриншоты


MediaInfo

Расположение: E:\СЕРИАЛЫ\The Mob Doctor\The.Mob.Doctor.s01e01.WEBDLRip.NewStudio.TV.avi
Имя файла: The.Mob.Doctor.s01e01.WEBDLRip.NewStudio.TV.avi
Формат файла: .avi (AVI)
Размер файла: 550.59 MB
Длительность: 44mn 5s
Навигация по главам: Нет
Bitrate (все потоки): 1 746 Kbps
Тип битрейта (все потоки): Variable
...при помощи: VirtualDubMod 1.5.10.2 (build 2540/release)
...с использованием: VirtualDubMod build 2540/release
Название: The.Mob.Doctor.s01e01.WEBDLRip.NewStudio.TV
Тип потока: Видео
Длительность: 00:44:05
Кодек: MPEG-4 Visual
Кодек/Профиль: Advanced Simple@L5
Кодек/ID: XVID
Размеры изображения: 720 x 400 (16:9)
Частота кадров: 23.976 fps
Размер потока: 464 MiB (84%)
Битрейт: 1 471 Kbps
Цветовое пространство: YUV
Тип развёртки: Progressive
Bits/(Pixel*Frame): 0.213
Глубина пикселя: 8 bits
Библиотека кодирования: XviD 64
Тип потока: Звук #1
Длительность: 00:44:05.424
Кодек: MPEG Audio
Кодек/ID: 55
Частота дискретизации: 48.0 KHz
Каналы: 2 channels
Битрейт: 128 Kbps
Тип битрейта: Constant
Размер потока: 40.4 MiB (7%)
Тип потока: Звук #2
Длительность: 00:44:05.424
Кодек: MPEG Audio
Кодек/ID: 55
Частота дискретизации: 48.0 KHz
Каналы: 2 channels
Битрейт: 128 Kbps
Тип битрейта: Variable
Размер потока: 41.0 MiB (7%)

Внимание! Раздача ведётся путём добавления новых серий.

Внимание! Раздача ведётся путём добавления новых серий; при каждом добавлении создётся новый торрент. Чтобы начать докачку новой серии, пользователям необходимо сделать следующее:
Остановить скачивание.
Удалить старый торрент у себя из клиента (старые серии удалять не надо).
Скачать новый торрент и запустить его у себя в клиенте вместо старого, при этом указать клиенту путь в старую папку куда и должно происходить скачивание новых серий.
Ваш клиент при этом должен произвести хеширование (проверку) старой папки (если не производит сам - помогите ему сделать это), и будет докачивать только те серии которых у вас ещё нет. Старые серии при этом не удаляются, а продолжают раздаваться!
Eсли вы уже удалили старые серии, то предотвратить повторную закачку старых серий можно, отжав галочку в соответсвующих местах при запуске нового торрента. По возможности, желательно не удалять старые серии как можно дольше чтобы релизёр не столько продолжал раздавать старые серии, а смог сконцентрироваться на новых

_________________
[Торрент-статистика]
[Профиль]  [ЛС] 
Показать сообщения:    
Ответить на тему

Текущее время: Сегодня 19:36

Часовой пояс: GMT + 4



Вы не можете начинать темы
Вы не можете отвечать на сообщения
Вы не можете редактировать свои сообщения
Вы не можете удалять свои сообщения
Вы не можете голосовать в опросах
Вы не можете прикреплять файлы к сообщениям
Вы не можете скачивать файлы