Амазонка Питера Бенчли / Peter Benchley's Amazon / Сезон 1 Серии 1-22 (из 22) (Джон Кассар, Рон Оливер, Крэйг Прайс, Скотт Саммерсгилл) [1999 г., Приключения, DVDRip]

Ответить на тему
 
Автор
Сообщение

awk05 ®

Пол:

Стаж: 4 года 5 месяцев

Сообщений: 1352

Репутация: 275 [+] [-]

Откуда: Западная Украина Ривне

Пост 19-Дек-2012 23:22

[Цитировать] 

--Амазонка Питера Бенчли / Peter Benchley's Amazon-- Год выпуска: 1999
Страна: Германия, Канада
Жанр: Приключения
Сезон/Серия: Сезон:1 /Серия 1-22 из 22
Продолжительность: 22 х 00:44:22
Перевод:Профессиональный (многоголосый, закадровый)--Режиссер: Джон Кассар, Рон Оливер, Крэйг Прайс, Скотт Саммерсгилл--В ролях: С. Томас Хауэлл, Кэрол Альт, Крис Мартин, Фабиана Уденио, Тайлер Хайнс, Роб Стюарт, Гэбриел Хоган, Джон Невилл и др.--Описание: Самолет, направлявшийся в Рио-де-Жанейро, разбился в джунглях Амазонки. Шесть пассажиров спаслись, но все считают их без вести пропавшими. Несчастные вынуждены искать выход из непроходимых джунглей, в которых человеку, чтобы не стать чей-нибудь жертвой, приходится превратиться в хитроумного и беспощадного охотника.
Новоиспеченные робинзоны даже и не догадывались, что стоят на пороге настоящих испытаний. Их ждет встреча и с агрессивными туземцами, и с племенем призраков… Начинается борьба за выживание среди хищных животных, безжалостных людей и кошмарных фантомов…--Качество видео: DVDRip
Формат видео: AVI
Видео кодек: MPEG4, XviD
Аудио кодек: MP3
Видео: MPEG4, XviD, 624x352 (16:9), 25.000 fps, 985 Kbps (0.179 bit/pixel)
Аудио: MP3, 48.0 KHz, 2 ch, 102 Kbps, VBR, 16 bits [Русский] --

MediaInfo

General
Complete name : E:\СЕРИАЛЫ\Амазонка Питера Бенчли\S01E01.avi
Format : AVI
Format/Info : Audio Video Interleave
File size : 345 MiB
Duration : 43mn 52s
Overall bit rate mode : Variable
Overall bit rate : 1 100 Kbps
Writing application : VirtualDubMod 1.5.4.1 (build 2178/release)
Writing library : VirtualDub build 30091/release
Video
ID : 0
Format : MPEG-4 Visual
Format profile : Advanced Simple@L5
Format settings, BVOP : 1
Format settings, QPel : No
Format settings, GMC : No warppoints
Format settings, Matrix : Custom
Codec ID : XVID
Codec ID/Hint : XviD
Duration : 43mn 52s
Bit rate : 985 Kbps
Width : 624 pixels
Height : 352 pixels
Display aspect ratio : 16:9
Frame rate : 25.000 fps
Color space : YUV
Chroma subsampling : 4:2:0
Bit depth : 8 bits
Scan type : Progressive
Compression mode : Lossy
Bits/(Pixel*Frame) : 0.179
Stream size : 309 MiB (90%)
Writing library : XviD 1.2.0.dev47 (UTC 2006-11-01)
Audio
ID : 1
Format : MPEG Audio
Format version : Version 1
Format profile : Layer 3
Mode : Joint stereo
Mode extension : MS Stereo
Codec ID : 55
Codec ID/Hint : MP3
Duration : 43mn 52s
Bit rate mode : Variable
Bit rate : 102 Kbps
Channel count : 2 channels
Sampling rate : 48.0 KHz
Compression mode : Lossy
Stream size : 32.0 MiB (9%)
Alignment : Aligned on interleaves
Interleave, duration : 24 ms (0.60 video frame)
Interleave, preload duration : 617 ms

Скриншоты


_________________
[Торрент-статистика]
[Профиль]  [ЛС] 
Показать сообщения:    
Ответить на тему

Текущее время: Сегодня 06:28

Часовой пояс: GMT + 4



Вы не можете начинать темы
Вы не можете отвечать на сообщения
Вы не можете редактировать свои сообщения
Вы не можете удалять свои сообщения
Вы не можете голосовать в опросах
Вы не можете прикреплять файлы к сообщениям
Вы не можете скачивать файлы