Терминатор: Хроники Сары Коннор / Terminator: The Sarah Connor Chronicles / Сезон: 2 / Серии: 1-22 (22) (Чарльз Бисон (Charles Beeson), Джеффри Дж. Хант (Jeffrey G. Hunt), Дэвид Наттер [2008 г., Фантастика, боевик, BDRip] Дубляж Рен ТВ

Ответить на тему
 
Автор
Сообщение

awk05 ®

Пол:

Стаж: 4 года 5 месяцев

Сообщений: 1352

Репутация: 275 [+] [-]

Откуда: Западная Украина Ривне

Пост 11-Дек-2012 16:57

[Цитировать] 

--Терминатор: Хроники Сары Коннор
Terminator: The Sarah Connor Chronicles
«This season a mother will become a warrior,
a son will become a hero, and their only ally will be a friend from the future»
-- Год выпуска: 2008
Страна: США
Жанр: Фантастика, боевик
Сезон/Серия: Сезон:2 /Серия 1-22 из 22
Продолжительность: 22 х ~00:43:00
Перевод: Профессиональный (полное дублирование) Рен ТВ
Субтитры: отсутствуют--Режиссер: Чарльз Бисон (Charles Beeson), Джеффри Дж. Хант (Jeffrey G. Hunt), Дэвид Наттер (David Nutter), Дж. Миллер Тобин (J. Miller Tobin), Брайан Спайсер (Bryan Spicer), Гай Норман Би (Guy Norman Bee), Джефф Вулнаф (Jeff Woolnough)--В ролях: Лена Хеди (Сара Коннор), Томас Деккер (Джон Коннор), Саммер Глау (Кэмерон Филлипс / Эллисон Янг), Брайан Остин Грин (Дерек Риз), Ричард Т. Джонс (Джеймс Эллисон), Гаррет Диллахант (<Кромарти> / <Джон Генри> / Джордж Ласло), Ширли Мэнсон (Кэтрин Уивер), Левен Рамбин (Райли Доусон),Стефани Якобсен (Джесси Флорес), Дин Уинтерс (Чарли Диксон) и др.--Описание: Хроники Сары Коннор - телесериал, являющийся ответвлением сюжетной линии кинотрилогии <Терминатор>. В центре сюжета Сара Коннор и её сын Джон, время действия - после событий фильма <Терминатор-2>. Герои вновь сталкиваются со злобным киборгом из будущего, который явился, чтобы убить Джона. Беглецов спасает <положительная> терминатор Кэмерон (Саммер Глау), которая сообщает семейству Конноров, что Скайнет все-таки был изобретен и конец света состоится, хотя и сместится по времени в будущее на несколько лет вперед. Трое героев - Сара, Джон и Кэмерон пытаются вычислить создателя Скайнета и пресечь его разработки; параллельно за ними охотятся киборги, ФБР и полиция.--Качество видео: BDRip
Формат видео: AVI
Видео кодек: MPEG4, XviD
Аудио кодек: MP3
Видео: MPEG4, XviD, 720x400 (16:9), 23.976 fps, 1 199 Kbps (0.174 bit/pixel)
Аудио 1: MP3, 48.0 KHz, 2 ch, 192 Kbps, CBR, 16 bits [Русский]
Аудио 2: MP3, 48.0 KHz, 2 ch, 192 Kbps, CBR, 16 bits [Английский] -- --

Знаете ли Вы, что...

* Всего было снято два сезона; проект был заморожен из-за невысоких рейтингов второго сезона при показе в США, не оправдавших бюджет.
* Это первый и единственный фильм, в котором появляются персонажи: Кэмерон Филлипс, Дерек Риз, Т-888, T-1001.
* Дословный перевод названия сериала звучит как: «Терминатор: Хроники Сары Коннор».
* В первой серии Кэмерон говорит Джону Коннору «Пойдем со мной, если хочешь жить» (Come with me if you want to live), эта фраза звучала при схожих обстоятельствах в первой и во второй части «Терминатора».
* Слово «терминатор» в сериале намеренно ни разу не произносится.

Тех. данные (MI&#41;

Код:
Общее
Полное имя                               : E:\СЕРИАЛЫ\Terminator\Terminator.the.Sarah.Connor.Chronicles.s02.rus.eng.bdrip.filmgate.tv\Terminator.the.Sarah.Connor.Chronicles.s02e01.rus.eng.bdrip.filmgate.tv.avi
Формат                                   : AVI
Формат/Информация                        : Audio Video Interleave
Размер файла                             : 510 Мбайт
Продолжительность                        : 44 м.
Общий поток                              : 1597 Кбит/сек
Программа кодирования                    : VirtualDubModRus 1.5.10.2 (build 2542/release)
Библиотека кодирования                   : VirtualDubMod build 2542/release
Видео
Идентификатор                            : 0
Формат                                   : MPEG-4 Visual
Профиль формата                          : Advanced Simple@L5
Параметр BVOP формата                    : 8
Параметр QPel формата                    : Нет
Параметр GMC формата                     : Без точки перехода
Параметр матрицы формата                 : Default (H.263)
Режим смешивания                         : Сжатый битовый поток
Идентификатор кодека                     : XVID
Идентификатор кодека/Подсказка           : XviD
Продолжительность                        : 44 м.
Битрейт                                  : 1199 Кбит/сек
Ширина                                   : 720 пикселей
Высота                                   : 400 пикселей
Соотношение сторон                       : 16:9
Частота кадров                           : 23,976 кадра/сек
Цветовое пространство                    : YUV
Субдискретизация насыщенности            : 4:2:0
Битовая глубина                          : 8 бит
Тип развёртки                            : Прогрессивная
Метод сжатия                             : С потерями
Бит/(Пиксели*Кадры)                      : 0.174
Размер потока                            : 383 Мбайт (75%)
Библиотека кодирования                   : XviD 57
Аудио #1
Идентификатор                            : 1
Формат                                   : MPEG Audio
Версия формата                           : Version 1
Профиль формата                          : Layer 3
Идентификатор кодека                     : 55
Идентификатор кодека/Подсказка           : MP3
Продолжительность                        : 44 м.
Вид битрейта                             : Постоянный
Битрейт                                  : 192 Кбит/сек
Каналы                                   : 2 канала
Частота                                  : 48,0 КГц
Метод сжатия                             : С потерями
Размер потока                            : 61,3 Мбайт (12%)
Выравнивание                             : Соединение по промежуткам
Продолжительность промежутка             : 42  мс. (1,00 видеокадр)
Время предзагрузки промежутка            : 504  мс.
Аудио #2
Идентификатор                            : 2
Формат                                   : MPEG Audio
Версия формата                           : Version 1
Профиль формата                          : Layer 3
Режим                                    : Joint stereo
Расширение режима                        : MS Stereo
Идентификатор кодека                     : 55
Идентификатор кодека/Подсказка           : MP3
Продолжительность                        : 44 м.
Вид битрейта                             : Постоянный
Битрейт                                  : 192 Кбит/сек
Каналы                                   : 2 канала
Частота                                  : 48,0 КГц
Метод сжатия                             : С потерями
Размер потока                            : 61,3 Мбайт (12%)
Выравнивание                             : Соединение по промежуткам
Продолжительность промежутка             : 42  мс. (1,00 видеокадр)
Время предзагрузки промежутка            : 504  мс.
Библиотека кодирования                   : LAME3.98r
Настройки программы                      : -m j -V 4 -q 2 -lowpass 18.6 -b 192

Кадры из фильма

«СЕЗОН 1» «СЕЗОН 2»

_________________
[Торрент-статистика]
[Профиль]  [ЛС] 
Показать сообщения:    
Ответить на тему

Текущее время: Сегодня 10:50

Часовой пояс: GMT + 4



Вы не можете начинать темы
Вы не можете отвечать на сообщения
Вы не можете редактировать свои сообщения
Вы не можете удалять свои сообщения
Вы не можете голосовать в опросах
Вы не можете прикреплять файлы к сообщениям
Вы не можете скачивать файлы