Терминатор: Хроники Сары Коннор / Terminator: The Sarah Connor Chronicles / Сезон: 1 / Серии: 1-9 (9) (Чарльз Бисон (Charles Beeson), Джеффри Дж. Хант (Jeffrey G. Hunt)) [2007 г., Фантастика, боевик, HDTVRip]

Ответить на тему
 
Автор
Сообщение

awk05 ®

Пол:

Стаж: 4 года 5 месяцев

Сообщений: 1352

Репутация: 275 [+] [-]

Откуда: Западная Украина Ривне

Пост 11-Дек-2012 16:40

[Цитировать] 

--Терминатор: Хроники Сары Коннор
Terminator: The Sarah Connor Chronicles
«This season a mother will become a warrior,
a son will become a hero, and their only ally will be a friend from the future»
-- Год выпуска: 2007
Страна: США
Жанр: Фантастика, боевик
Сезон/Серия: Сезон:1 /Серия 1-22 из 22
Продолжительность: 9 х ~00:43:00
Перевод: Профессиональный (полное дублирование)
Субтитры: отсутствуют--Режиссер: Чарльз Бисон (Charles Beeson), Джеффри Дж. Хант (Jeffrey G. Hunt), Дэвид Наттер (David Nutter), Дж. Миллер Тобин (J. Miller Tobin), Брайан Спайсер (Bryan Spicer), Гай Норман Би (Guy Norman Bee), Джефф Вулнаф (Jeff Woolnough)--В ролях: Лена Хеди (Сара Коннор), Томас Деккер (Джон Коннор), Саммер Глау (Кэмерон Филлипс / Эллисон Янг), Брайан Остин Грин (Дерек Риз), Ричард Т. Джонс (Джеймс Эллисон), Гаррет Диллахант (<Кромарти> / <Джон Генри> / Джордж Ласло), Ширли Мэнсон (Кэтрин Уивер), Левен Рамбин (Райли Доусон),Стефани Якобсен (Джесси Флорес), Дин Уинтерс (Чарли Диксон) и др.--Описание: Действие сериала разворачивается спустя два года после событий в фильме «Терминатор 2: Судный день». Сара Коннор и ее сын Джон вновь сталкиваются со злобным киборгом из будущего, который явился, чтобы убить будущего предводителя повстанцев. Беглецов спасает «добрая» терминаторша Камерон (Саммер Глоу), которая сообщает семейству Конноров, что Скайнет все таки был изобретен и конец света состоится, хотя и сместится по времени в будущее. Теперь этой боевой троице предстоит найти нынешнего создателя Скайнета и пресечь его разработки, попутно отбиваясь от киборгов, агентов ФБР и полиции…--Качество видео: HDTVRip
Формат видео: MP4
Видео кодек: AVC (High@L3.1)
Аудио кодек: AAC LC
Видео: AVC, 576x320 (16:9), 23.976 fps, 768 Kbps (0.174 bit/pixel)
Аудио: AAC LC, 48.0 KHz, 2 ch, 96.0 Kbps, VBR, 16 bits [Русский] -- --

Знаете ли Вы, что...

* Всего было снято два сезона; проект был заморожен из-за невысоких рейтингов второго сезона при показе в США, не оправдавших бюджет.
* Это первый и единственный фильм, в котором появляются персонажи: Кэмерон Филлипс, Дерек Риз, Т-888, T-1001.
* Дословный перевод названия сериала звучит как: «Терминатор: Хроники Сары Коннор».
* В первой серии Кэмерон говорит Джону Коннору «Пойдем со мной, если хочешь жить» (Come with me if you want to live), эта фраза звучала при схожих обстоятельствах в первой и во второй части «Терминатора».
* Слово «терминатор» в сериале намеренно ни разу не произносится.

Тех. данные (MI&#41;

Код:
Общее
Полное имя                               : E:\СЕРИАЛЫ\Terminator\Terminator 1\terminator.s01e01.hdtvrip.rus.novafilm.tv.mp4
Формат                                   : MPEG-4
Профиль формата                          : Base Media
Идентификатор кодека                     : isom
Размер файла                             : 288 Мбайт
Продолжительность                        : 46 м.
Режим общего битрейта                    : Переменный
Общий поток                              : 867 Кбит/сек
Коллекция                                : Terminator
Сезон                                    : 1
Часть                                    : 1
Дата кодирования                         : UTC 2009-03-03 23:37:01
Дата пометки                             : UTC 2009-03-05 19:47:30
Part_ID                                  : 101
Видео
Идентификатор                            : 1
Формат                                   : AVC
Формат/Информация                        : Advanced Video Codec
Профиль формата                          : Baseline@L3.0
Параметр CABAC формата                   : Нет
Параметр ReFrames формата                : 6 кадров
Идентификатор кодека                     : avc1
Идентификатор кодека/Информация          : Advanced Video Coding
Продолжительность                        : 46 м.
Битрейт                                  : 768 Кбит/сек
Максимальный битрейт                     : 2163 Кбит/сек
Ширина                                   : 576 пикселей
Высота                                   : 320 пикселей
Соотношение сторон                       : 16:9
Режим частоты кадров                     : Постоянный
Частота кадров                           : 23,976 кадра/сек
Цветовое пространство                    : YUV
Субдискретизация насыщенности            : 4:2:0
Битовая глубина                          : 8 бит
Тип развёртки                            : Прогрессивная
Бит/(Пиксели*Кадры)                      : 0.174
Размер потока                            : 255 Мбайт (89%)
Библиотека кодирования                   : x264 core 65 r999kMod cc51047
Настройки программы                      : cabac=0 / ref=6 / deblock=1:0:0 / analyse=0x1:0x131 / me=umh / subme=6 / psy_rd=1.0:0.0 / mixed_ref=1 / me_range=16 / chroma_me=1 / trellis=0 / 8x8dct=0 / cqm=0 / deadzone=21,11 / chroma_qp_offset=-2 / threads=4 / thread_queue=4 / nr=0 / decimate=1 / mbaff=0 / bframes=0 / keyint=250 / keyint_min=25 / scenecut=40(pre) / rc=2pass / bitrate=768 / ratetol=1.0 / qcomp=0.60 / qpmin=10 / qpmax=51 / qpstep=4 / cplxblur=20.0 / qblur=0.5 / ip_ratio=1.40 / aq=1:1.00
Дата кодирования                         : UTC 2009-03-03 23:37:01
Дата пометки                             : UTC 2009-03-03 23:37:06
Аудио
Идентификатор                            : 2
Формат                                   : AAC
Формат/Информация                        : Advanced Audio Codec
Профиль формата                          : LC
Идентификатор кодека                     : 40
Продолжительность                        : 46 м.
Вид битрейта                             : Переменный
Битрейт                                  : 96,0 Кбит/сек
Максимальный битрейт                     : 106 Кбит/сек
Каналы                                   : 2 канала
Расположение каналов                     : Front: L R
Частота                                  : 48,0 КГц
Метод сжатия                             : С потерями
Размер потока                            : 32,1 Мбайт (11%)
Дата кодирования                         : UTC 2009-03-03 23:37:06
Дата пометки                             : UTC 2009-03-05 19:47:30

Кадры из фильма

«СЕЗОН 1» «СЕЗОН 2»

_________________


Последний раз редактировалось: awk05 (2012-12-11 21:20), всего редактировалось 1 раз
[Торрент-статистика]
[Профиль]  [ЛС] 
Показать сообщения:    
Ответить на тему

Текущее время: Сегодня 06:24

Часовой пояс: GMT + 4



Вы не можете начинать темы
Вы не можете отвечать на сообщения
Вы не можете редактировать свои сообщения
Вы не можете удалять свои сообщения
Вы не можете голосовать в опросах
Вы не можете прикреплять файлы к сообщениям
Вы не можете скачивать файлы