Под прицелом / Преследуемые / Hunted / Сезон: 1 / Серии: 1-8 (8) (Дэниэл Персивал, Олрик Райли, С.Дж. Кларксон ) [2012, Боевик, драма, WEB-DLRip] (NewStudio)

Ответить на тему
 
Автор
Сообщение

awk05 ®

Пол:

Стаж: 4 года 5 месяцев

Сообщений: 1352

Репутация: 275 [+] [-]

Откуда: Западная Украина Ривне

Пост 08-Дек-2012 22:58

[Цитировать] 

Под прицелом / Преследуемые / Hunted
--Год выпуска: 2012
Страна: Великобритания
Жанр: Боевик, драма
Продолжительность: 00:59:30
Перевод: Профессиональный двухголосый закадровый [NewStudio]
Режиссер: Дэниэл Персивал, Олрик Райли, С.Дж. Кларксон -В ролях: Оскар Кеннеди, Даффер Лабидин, Аарон Нил, Мелисса Джордж, Скотт Хэнди, Manjinder Virk, Питер Фоллебрегт, Адевале Акиннуойе-Агбадже, Стивен Кэмпбелл Мур, Стивен Диллэйн -Описание: Если вы любите захватывающие картины, то уж поверьте, данный сериал создан специально для вас! В этой ленте речь пойдет о молодой девушке, которая уже успела достичь некоторых успехов в своей сфере деятельности. Эту главную героиню зовут Саманта.
Она трудится в частном разведывательном управлении. То есть, мы с вами понимаем, что девушка на самом деле серьезная, и за словом она в карман не полезет. Итак, служба в управлении Саманте очень даже нравится, да в принципе, она с самого раннего детства себя такой и представляла. Это ее сущность, так скажем! В юности Саманта думала, что у нее будет верный и преданный коллектив, даже братство – единственные люди, которым можно доверить не только самые сокровенные мысли и тайны, но и собственную жизнь.
Но в скором будущем все подобные мысли, словно рукой смело. Дело заключается в том, что один прекрасный день на нее было совершено покушение. Саманта еле осталась в живых после нападения. Когда девушка лежала в больнице, до нее наконец-таки дошло, что подставили ее…свои! Это оказался самый критический момент в жизни нашей главной героини. Но вот в скором будущем Саманта выздоравливает, и теперь гона будет научена горьким опытом, более ожесточенной, так что, враг, берегись!
- -Озвучка: Константин Погодаев, Анна Тух
Перевод: StyleSmile
Подготовка видео: Koss
Работа со звуком: Koss-Качество: WEB-DLRip
Контейнер: AVI
Видео кодек: XviD
Аудио кодек: MP3 (MPEG1 Layer 3)
Видео: 720x400, 25.000 Fps, 1388 Кбит/с, 0.193 bit/pixel
Аудио: 48 kHz, 2 Ch, 128 Кбит/с-
КиноПоиск

МІ

-Расположение: E:\СЕРИАЛЫ\Hunted.s01\Hunted.s01.e01.WEB-DLRip.NewStudio.TV.avi
Имя файла: Hunted.s01.e01.WEB-DLRip.NewStudio.TV.avi
Формат файла: .avi (AVI)
Размер файла: 0 Byte(s)
Длительность: 59mn 0s
Навигация по главам: Нет
Bitrate (все потоки): 1 659 Kbps
...при помощи: VirtualDubMod 1.5.10.2 (build 2540/release)
...с использованием: VirtualDubMod build 2540/release
Название: Hunted.s01.e01.WEB-DLRip.NewStudio.TV
Тип потока: Видео
Длительность: 00:59:00
Кодек: MPEG-4 Visual
Кодек/Профиль: Advanced Simple@L5
Кодек/ID: XVID
Размеры изображения: 720 x 400 (16:9)
Частота кадров: 25.000 fps
Размер потока: 560 MiB (80%)
Битрейт: 1 326 Kbps
Цветовое пространство: YUV
Тип развёртки: Progressive
Bits/(Pixel*Frame): 0.184
Глубина пикселя: 8 bits
Библиотека кодирования: XviD 64
Тип потока: Звук #1
Длительность: 00:59:00.528
Кодек: MPEG Audio
Кодек/ID: 55
Частота дискретизации: 48.0 KHz
Каналы: 2 channels
Битрейт: 128 Kbps
Тип битрейта: Constant
Размер потока: 54.0 MiB (8%)
Тип потока: Звук #2
Длительность: 00:59:00.528
Кодек: MPEG Audio
Кодек/ID: 55
Частота дискретизации: 48.0 KHz
Каналы: 2 channels
Битрейт: 128 Kbps
Тип битрейта: Constant
Размер потока: 54.0 MiB (8%)

Скриншоты


_________________
[Торрент-статистика]
[Профиль]  [ЛС] 
Показать сообщения:    
Ответить на тему

Текущее время: Сегодня 08:35

Часовой пояс: GMT + 4



Вы не можете начинать темы
Вы не можете отвечать на сообщения
Вы не можете редактировать свои сообщения
Вы не можете удалять свои сообщения
Вы не можете голосовать в опросах
Вы не можете прикреплять файлы к сообщениям
Вы не можете скачивать файлы