Революция / Revolution / Сезон: 1 / Серии: 1-20 из 20 (Стив Бойум, Джон Фавро) [2012, Фантастика, WEB-DLRip] (Lostfilm)

Ответить на тему
 
Автор
Сообщение

Волк ®

Пол:

Стаж: 5 лет 1 месяц

Сообщений: 689

Репутация: 292 [+] [-]

Откуда: Армения

Пост 01-Ноя-2012 21:13

[Цитировать] 

Революция / Revolution- Год выпуска: 2012
Страна: США
Жанр: Фантастика
Продолжительность: 00:43:56
Перевод: Профессиональный многоголосый закадровый (Lostfilm)
Субтитры: Нет-Режиссёр: Стив Бойум, Джон Фавро-В ролях: Шэйн Каллахан, Билли Бёрк, Трэйси Спиридакос, Джанкарло Эспозито, Зак Орт, Дэвид Лайонс-Описание: Вся наша жизнь зависит от электричества. Что же произойдет, если оно внезапно исчезнет? Однажды, словно по щелчку выключателя, весь мир был отброшен в темные века. Самолеты падали с небес, больницы лишались энергообеспечения, связь стала невозможной. Теперь, без всех современных технологий, кто же ответит, почему?
Через 15 лет после бедствия, жизнь стала такой, какой она была до промышленной революции: семьи живут на глухих улочках, с заходом солнца зажигают фонари и свечи. Жизнь стала спокойнее и лучше. Но так ли это? За пределами небольших фермерских общин все еще таится опасность. Так жизнь молодой девушки резко меняется, когда местная милиция убивает ее отца, который каким-то неведомым для дочери образом имел связь с отключением. Это событие заставляет ее вместе с двумя спутниками отправиться в смелое путешествие, чтобы найти правду о прошлом в надежде изменить будущее.-Сэмпл: http://multi-up.com/764684-Качество видео: WEB-DLRip
Формат: AVI
Видеокодек: XviD
Аудиокодек: Mp3
Видео: MPEG-4 Visual at 1915 Кбит/сек, 720 x 400 (1.800) at 23.976 fps
Аудио: MPEG Audio at 128 Кбит/сек, 2 канала, 48,0 КГц

MI

Общее
Полное имя : D:\Торро\Сериалы\Революция (Revolution)\Revolution.S01.rus.LostFilm.TV\Revolution.S01E01.rus.LostFilm.TV.avi
Формат : AVI
Формат/Информация : Audio Video Interleave
Размер файла : 638 Мбайт
Продолжительность : 43 м.
Общий поток : 2056 Кбит/сек
Программа кодирования : Nandub v1.0rc2
Библиотека кодирования : Nandub build 1853/release
Видео
Идентификатор : 0
Формат : MPEG-4 Visual
Профиль формата : Simple@L3
Параметр BVOP формата : Нет
Параметр QPel формата : Нет
Параметр GMC формата : Без точки перехода
Параметр матрицы формата : Default (H.263)
Идентификатор кодека : XVID
Идентификатор кодека/Подсказка : XviD
Продолжительность : 43 м.
Битрейт : 1915 Кбит/сек
Ширина : 720 пикселей
Высота : 400 пикселей
Соотношение сторон : 16:9
Частота кадров : 23,976 кадра/сек
Цветовое пространство : YUV
Субдискретизация насыщенности : 4:2:0
Битовая глубина : 8 бит
Тип развёртки : Прогрессивная
Метод сжатия : С потерями
Бит/(Пиксели*Кадры) : 0.277
Размер потока : 595 Мбайт (93%)
Библиотека кодирования : XviD 1.2.1 (UTC 2008-12-04)
Аудио
Идентификатор : 1
Формат : MPEG Audio
Версия формата : Version 1
Профиль формата : Layer 3
Режим : Joint stereo
Расширение режима : MS Stereo
Идентификатор кодека : 55
Идентификатор кодека/Подсказка : MP3
Продолжительность : 43 м.
Вид битрейта : Постоянный
Битрейт : 128 Кбит/сек
Каналы : 2 канала
Частота : 48,0 КГц
Метод сжатия : С потерями
Задержка видео : 1 мс.
Размер потока : 39,7 Мбайт (6%)
Выравнивание : Соединение по промежуткам
Продолжительность промежутка : 24 мс. (0,58 видеокадр)
Время предзагрузки промежутка : 481 мс.

Скриншоты


Внимание! Раздача ведётся путём добавления новых серий

Внимание! Раздача ведётся путём добавления новых серий; при каждом добавлении создаётся новый торрент-файл. Чтобы начать дозакачку новой серии, пользователям необходимо сделать следующее:
(1) остановить скачивание,
(2) удалить старый торрент-файл у себя из клиента (старые серии удалять не надо),
(3) скачать новый торрент-файл и запустить его у себя в клиенте вместо старого, при этом указать клиенту путь в старую папку куда и должно происходить скачивание новых серий.
Ваш клиент при этом должен произвести хеширование (проверку) старой папки (если не производит сам - помогите ему сделать это), и будет докачивать только те серии которых у вас ещё нет. Старые серии при этом не удаляются, а продолжают раздаваться!
Eсли вы уже удалили старые серии, то предотвратить повторную закачку старых серий можно, отжав галочку в соответствующих местах при запуске нового торрента.
-- 04.07.13 Добавлена 20 серия.>>Сезон закончен<< -Не забываем говорить "Спасибо!" -


Последний раз редактировалось: Волк (2013-07-05 10:32), всего редактировалось 10 раз(а)
[Торрент-статистика]
[Профиль]  [ЛС] 

Волк ®

Пол:

Стаж: 5 лет 1 месяц

Сообщений: 689

Репутация: 292 [+] [-]

Откуда: Армения

Пост 11-Ноя-2012 20:06 (спустя 9 дней)

[Цитировать] 

Добавлена 7 серия! Приятного просмотра.
[Торрент-статистика]
[Профиль]  [ЛС] 

wasdik

Пол:

Стаж: 5 лет

Сообщений: 25

Репутация: 0 [+] [-]

Пост 12-Ноя-2012 11:09 (спустя 15 часов)

[Цитировать] 

Подскажите, пожалуйста, старые файлы остаются и в добавок качаются новые файлы первых 6 серий... вместо того чтобы докачать только 7 серию. Почему так? Вы случайно первые шесть файлов не заменили на новые? Раньше назывались файлы Revolution.s01e01.WEBDLRip.NewStudio.tv_NovaFilm.tv, а теперь Revolution.S01E01.rus.LostFilm.TV.avi.
[Торрент-статистика]
[Профиль]  [ЛС] 

Волк ®

Пол:

Стаж: 5 лет 1 месяц

Сообщений: 689

Репутация: 292 [+] [-]

Откуда: Армения

Пост 12-Ноя-2012 20:30 (спустя 9 часов)

[Цитировать] 

wasdik, Заменил по обстаятельствам!!!Теперь раздача от Lostfilm.
[Торрент-статистика]
[Профиль]  [ЛС] 

3232fox

Пол:

Стаж: 3 года 9 месяцев

Сообщений: 614

Репутация: 423 [+] [-]

Откуда: Крым,Россия

Пост 10-Апр-2013 23:54 (спустя 4 месяца 28 дней)

[Цитировать] 

Добавте 3 серии.
[Торрент-статистика]
[Профиль]  [ЛС] 

awk05

Пол:

Стаж: 4 года 5 месяцев

Сообщений: 1352

Репутация: 275 [+] [-]

Откуда: Западная Украина Ривне

Пост 22-Май-2013 21:15 (спустя 1 месяц 11 дней)

[Цитировать] 

так уже 17 серий вышло. ??????????????????

_________________
[Торрент-статистика]
[Профиль]  [ЛС] 

Волк ®

Пол:

Стаж: 5 лет 1 месяц

Сообщений: 689

Репутация: 292 [+] [-]

Откуда: Армения

Пост 04-Июл-2013 15:58 (спустя 1 месяц 12 дней)

[Цитировать] 

Добавлена 20 серия! Приятного просмотра.
[Торрент-статистика]
[Профиль]  [ЛС] 
Показать сообщения:    
Ответить на тему

Текущее время: Сегодня 04:17

Часовой пояс: GMT + 4



Вы не можете начинать темы
Вы не можете отвечать на сообщения
Вы не можете редактировать свои сообщения
Вы не можете удалять свои сообщения
Вы не можете голосовать в опросах
Вы не можете прикреплять файлы к сообщениям
Вы не можете скачивать файлы