Борджиа / The Borgias / Сезон 1 (ПОЛНЫЙ)/ Серии 1-9 (9) (Neil Jordan) [2011 г., историческая драма, BDRip] (LostFilm | Original)

Ответить на тему
 
Автор
Сообщение

TYAnCE ®

Пол:

Стаж: 4 года 11 месяцев

Сообщений: 269

Репутация: 65 [+] [-]

Откуда: Туапсе

Пост 02-Окт-2012 14:37

[Цитировать] 

-Борджиа / The Borgias- -Год выпуска: 2011
Страна: Канада, Ирландия, Венгрия
Жанр: Историческая драма
Продолжительность: ~ 00:50:00
Перевод: Профессиональный (многоголосый, закадровый) (LostFilm)
Режиссер: Neil Jordan / Нил Джордан-В ролях: Дэвид Оакес, Люк Паскуалино, Ронан Вайберт, Франсуа Арно , Холли Грэйнджер , Джереми Айронс, Эйдан Александр, Рута Гедминтас и др.-Описание: Драматический сериал "Борджиа" – это новый проект от телеканала Showtime. Один этот факт уже говорит о многом... и сулит захватывающий сюжет, шокирующие сцены и кровь, стынущую у зрителя в жилах.
В центре повествования - знаменитое семейство Борджиа, достигшее вершин власти в Италии эпохи Возрождения.
Слоган сериала: «Секс. Власть. Убийство. Аминь.» - полностью характеризует безжалостную политику и сексуальную распущенность, которыми заполнились в истории папа римский Александр VI, в миру Родриго Борджиа, и члены его семьи.-Качество: BDRip
Формат: AVI
Видео кодек: XviD
Аудио кодек: AC3
Видео: 720*400 (1.80), 23.976 fps, XviD MPEG-4, ~ 2110 kbps, 0.31 bit/pixel
Аудио #1: 48 kHz, AC3 Dolby Digital, 3/2 (L,C,R,l,r) + LFE ch, ~384.00 kbps avg |LostFilm|
Аудио #2: 48 kHz, AC3 Dolby Digital, 3/2 (L,C,R,l,r) + LFE ch, ~384.00 kbps avg |Original|--Перевод: Caranemica
Озвучка: Студия "LostFilm"
Работа со звуком: Vlad1k(H_)
Рип видео: svm-mfs--
--

Скриншоты

-

Список серий

-- 03.04.2011 01 - Отравленная чаша (The Poisoned Chalice)
- 03.04.2011 02 - Убийца (The Assassin)
- 10.04.2011 03 - Мавр (The Moor)
- 17.04.2011 04 - Свадьба Лукреции (Lucrezia's Wedding)
- 24.04.2011 05 - Влюбленные Борджиа (The Borgias in Love)
- 01.05.2011 06 - Французский король (The French King)
- 08.05.2011 07 - Смерть на бледном коне (Death, on a Pale Horse)
- 15.05.2011 08 - Искусство войны (The Art of War)
- 22.05.2011 09 - Никто (Nessuno (Nobody))-

MI

GeneralComplete name : E:\The Borgias - S1 - [BDRip] (LostFilm)\The.Borgias.S01E01.BDRip.AC3.XviD.-SVM.aviFormat : AVIFormat/Info : Audio Video InterleaveFile size : 1 023 MiBDuration : 49mn 26sOverall bit rate : 2 892 KbpsWriting application : VirtualDubMod 1.5.10.2 (build 2540/release)Writing library : VirtualDubMod build 2540/release
VideoID : 0Format : MPEG-4 VisualFormat profile : Advanced Simple@L5Format settings, BVOP : 2Format settings, QPel : NoFormat settings, GMC : No warppointsFormat settings, Matrix : Default (MPEG)Muxing mode : Packed bitstreamCodec ID : XVIDCodec ID/Hint : XviDDuration : 49mn 26sBit rate : 2 111 KbpsWidth : 720 pixelsHeight : 400 pixelsDisplay aspect ratio : 16:9Frame rate : 23.976 fpsResolution : 8 bitsColorimetry : 4:2:0Scan type : ProgressiveBits/(Pixel*Frame) : 0.306Stream size : 746 MiB (73%)Writing library : XviD 1.2.1 (UTC 2008-12-04)
Audio #1ID : 1Format : AC-3Format/Info : Audio Coding 3Codec ID : 2000Duration : 49mn 25sBit rate mode : ConstantBit rate : 384 KbpsChannel(s) : 6 channelsChannel positions : Front: L C R, Surround: L R, LFESampling rate : 48.0 KHzStream size : 136 MiB (13%)Alignment : Split accross interleavesInterleave, duration : 42 ms (1.00 video frame)Interleave, preload duration : 500 ms
Audio #2ID : 2Format : AC-3Format/Info : Audio Coding 3Codec ID : 2000Duration : 49mn 25sBit rate mode : ConstantBit rate : 384 KbpsChannel(s) : 6 channelsChannel positions : Front: L C R, Surround: L R, LFESampling rate : 48.0 KHzStream size : 136 MiB (13%)Alignment : Split accross interleavesInterleave, duration : 42 ms (1.00 video frame)Interleave, preload duration : 500 ms

_________________
[Торрент-статистика]
[Профиль]  [ЛС] 
Показать сообщения:    
Ответить на тему

Текущее время: Сегодня 10:56

Часовой пояс: GMT + 4



Вы не можете начинать темы
Вы не можете отвечать на сообщения
Вы не можете редактировать свои сообщения
Вы не можете удалять свои сообщения
Вы не можете голосовать в опросах
Вы не можете прикреплять файлы к сообщениям
Вы не можете скачивать файлы