Борджиа / The Borgias / Сезон: 2 (ПОЛНЫЙ)/ Серии: 1-10 (10) (Нил Джордан, Саймон Селлан Джоунс) [2012, историческая драма, HDTVRip] (LostFilm)

Ответить на тему
 
Автор
Сообщение

TYAnCE ®

Пол:

Стаж: 4 года 11 месяцев

Сообщений: 269

Репутация: 65 [+] [-]

Откуда: Туапсе

Пост 02-Окт-2012 14:17

[Цитировать] 

Борджиа / The Borgias
Год выпуска: 2012
Страна: Канада, Ирландия, Венгрия
Жанр: историческая драма
Продолжительность: ~ 52 минуты
Перевод: Профессиональный многоголосый закадровый (LostFilm)
Субтитры: Нет-Режиссёр: Нил Джордан, Саймон Селлан Джоунс-В ролях: Джереми Айронс, Дэвид Оакес , Франсуа Арно , Холлидей Грейнджер ,Лотте Вербеек, Джоанн Уолли, Мишель Мюллер и др.-Описание: Сериал повествует о знаменитом семействе Борджиа, которое достигло вершин власти в Италии в период Возрождения. Действие происходит в Риме. Слоган сериала: «Секс. Власть. Убийство. Аминь» отражает царящие в тот период порядки на Святом Престоле. Именно так пришел к власти новый римский папа - Александр VI, в миру Родриго Борджиа.- -Качество: HDTVRip
Формат: AVI
Видео кодек: XviD
Аудио кодек: MP3
Видео: MPEG4, XviD, 720x400 (16/9), 23.976 fps, 1 450 Kbps (0.210 bit/pixel)
Аудио: MP3, 48.0 KHz, 2 ch, 128 Kbps, CBR

MI

General
Complete name : I:\ЗАКАЧКИ\Borgias.S02 (LostFilm)\Borgias.S02E01.rus.LostFilm.TV.avi.avi
Format : AVI
Format/Info : Audio Video Interleave
File size : 602 MiB
Duration : 52mn 56s
Overall bit rate : 1 591 Kbps
Writing application : Nandub v1.0rc2
Writing library : Nandub build 1853/release
Video
ID : 0
Format : MPEG-4 Visual
Format profile : Simple@L3
Format settings, BVOP : No
Format settings, QPel : No
Format settings, GMC : No warppoints
Format settings, Matrix : Default (H.263)
Codec ID : XVID
Codec ID/Hint : XviD
Duration : 52mn 56s
Bit rate : 1 450 Kbps
Width : 720 pixels
Height : 400 pixels
Display aspect ratio : 16:9
Frame rate : 23.976 fps
Color space : YUV
Chroma subsampling : 4:2:0
Bit depth : 8 bits
Scan type : Progressive
Compression mode : Lossy
Bits/(Pixel*Frame) : 0.210
Stream size : 549 MiB (91%)
Writing library : XviD 1.2.1 (UTC 2008-12-04)
Audio
ID : 1
Format : MPEG Audio
Format version : Version 1
Format profile : Layer 3
Mode : Joint stereo
Mode extension : MS Stereo
Codec ID : 55
Codec ID/Hint : MP3
Duration : 52mn 56s
Bit rate mode : Constant
Bit rate : 128 Kbps
Channel(s) : 2 channels
Sampling rate : 48.0 KHz
Compression mode : Lossy
Stream size : 48.5 MiB (8%)
Alignment : Aligned on interleaves
Interleave, duration : 24 ms (0.58 video frame)
Interleave, preload duration : 480 ms

Скриншоты




_________________
[Торрент-статистика]
[Профиль]  [ЛС] 
Показать сообщения:    
Ответить на тему

Текущее время: Сегодня 09:02

Часовой пояс: GMT + 4



Вы не можете начинать темы
Вы не можете отвечать на сообщения
Вы не можете редактировать свои сообщения
Вы не можете удалять свои сообщения
Вы не можете голосовать в опросах
Вы не можете прикреплять файлы к сообщениям
Вы не можете скачивать файлы