Пропавший / Missing / Сезон: 1 (ПОЛНЫЙ)/ Серии: 1-10 (10) (Стив Шилл) [2012, драма, WEB-DLRip 400p] DUB (Невафильм)

Ответить на тему
 
Автор
Сообщение

TYAnCE ®

Пол:

Стаж: 4 года 11 месяцев

Сообщений: 269

Репутация: 65 [+] [-]

Откуда: Туапсе

Пост 02-Окт-2012 13:31

[Цитировать] 

--Пропавший / Missing-- Год выпуска: 2012
Страна: США, Чехия
Жанр: драма
Продолжительность: ~ 42 минуты
Перевод: Профессиональный (полное дублирование) - Невафильм
Субтитры: Русские (форсированные)
Режиссёр: Стив Шилл-В ролях: Джейсон Вонг, Эшли Джадд, Шон Бин, Ник Эверсман, Клифф Кёртис, Лаура Доннелли, Фабиан Аломар, Джессика Бун, Кит Кэрредин, Брайан Каспе и др.-Описание: Бекка Уинстон узнает, что ее сын пропал без вести во время учебы за границей. На счету каждая секунда, и она отправляется на его поиски из США в Европу. Удивительные места и невероятные повороты сюжета открываются по мере того, как мать пытается отыскать и защитить сына.-Качество: WEB-DLRip
Формат: AVI
Видео кодек: XviD
Аудио кодек: AC3
Видео: 720x400 (16:9), 23.976 fps, ~2000 kbps, ~0.290 bit/pixel
Аудио Rus: 48 kHz, 2 ch, ~192 kbps |Невафильм|
Аудио Eng: 48 kHz, 2 ch, ~192 kbps |Original|-Озвучка: Невафильм
Рип: LegendKiev-
-

Список серий

Pilot
The Hard Drive
Ice Queen
Tell Me No Lies
The Three Bears
A Busy Solitude
Measure of a Man
Answers
Promise
All the Devils Are Here

Скриншоты


MediaInfo

Общее
Полное имя : E:\Missing.S01.WEB-DLRip.Rus.Eng\Missing.S01E01.WEB-DLRip.Rus.Eng.avi
Формат : AVI
Формат/Информация : Audio Video Interleave
Размер файла : 714 Мбайт
Продолжительность : 41 м.
Общий поток : 2398 Кбит/сек
Программа кодирования : VirtualDubMod 1.5.10.2 (build 2540/release)
Библиотека кодирования : VirtualDubMod build 2540/release
Видео

Идентификатор : 0
Формат : MPEG-4 Visual
Профиль формата : Advanced Simple@L5
Параметр BVOP формата : 1
Параметр QPel формата : Нет
Параметр GMC формата : Без точки перехода
Параметр матрицы формата : Выборочная
Идентификатор кодека : XVID
Идентификатор кодека/Подсказка : XviD
Продолжительность : 41 м.
Битрейт : 2000 Кбит/сек
Ширина : 720 пикс.
Высота : 400 пикс.
Соотношение сторон : 16:9
Частота кадров : 23,976 кадр/сек
Цветовое пространство : YUV
Подвыборка цветности : 4:2:0
Битовая глубина : 8 бит
Тип развёртки : Прогрессивная
Метод сжатия : С потерями
Бит/(Пиксели*Кадры) : 0.290
Размер потока : 596 Мбайт (83%)
Библиотека кодирования : XviD 1.2.1 (UTC 2008-12-04)
Аудио #1
Идентификатор : 1
Формат : AC-3
Формат/Информация : Audio Coding 3
Расширение режима : CM (complete main)
Идентификатор кодека : 2000
Продолжительность : 41 м.
Вид битрейта : Постоянный
Битрейт : 192 Кбит/сек
Каналы : 2 канала
Расположение каналов : Front: L R
Частота : 48,0 КГц
Битовая глубина : 16 бит
Метод сжатия : С потерями
Размер потока : 57,2 Мбайт (8%)
Выравнивание : Разделение по промежуткам
Продолжительность промежутка : 42 мс. (1,00 видеокадр)
Время предзагрузки промежутка : 500 ms
Аудио #2
Идентификатор : 2
Формат : AC-3
Формат/Информация : Audio Coding 3
Расширение режима : CM (complete main)
Идентификатор кодека : 2000
Продолжительность : 41 м.
Вид битрейта : Постоянный
Битрейт : 192 Кбит/сек
Каналы : 2 канала
Расположение каналов : Front: L R
Частота : 48,0 КГц
Битовая глубина : 16 бит
Метод сжатия : С потерями
Размер потока : 57,2 Мбайт (8%)
Выравнивание : Разделение по промежуткам
Продолжительность промежутка : 42 мс. (1,00 видеокадр)
Время предзагрузки промежутка : 500 ms

_________________


Последний раз редактировалось: TYAnCE (2012-10-02 14:20), всего редактировалось 1 раз
[Торрент-статистика]
[Профиль]  [ЛС] 

AlexusA

Пол:

Стаж: 4 года 9 месяцев

Сообщений: 226

Репутация: 45 [+] [-]

Откуда: Нижний Новгород

Пост 02-Окт-2012 13:37 (спустя 5 минут)

[Цитировать] 

Интересный сериал, жаль только один сезон... Но финал есть, и сюжетная линия завершена...

_________________
[Торрент-статистика]
[Профиль]  [ЛС] 

SIROP71

Пол:

Стаж: 5 лет

Сообщений: 46

Репутация: 25 [+] [-]

Пост 11-Апр-2013 00:14 (спустя 6 месяцев 8 дней)

[Цитировать] 

Тоже смотрел с удовольствием.

_________________
КОГДА ТУФЛИ НЕ ЖМУТ. Беседы об историях Джуан-цзы. ОШО
ЧУЖАК В ЧУЖОЙ СТРАНЕ. Роберт Хайнлайн
БОЙЦОВСКИЙ КЛУБ. Чак Паланик
ФИЛОСОФСКИЕ СКАЗКИ ДЛЯ ОБДУМЫВАЮЩИХ ЖИТЬЕ, или Веселая книга о свободе и нравственности. Н.И.Козлов
[Торрент-статистика]
[Профиль]  [ЛС] 
Показать сообщения:    
Ответить на тему

Текущее время: Сегодня 16:45

Часовой пояс: GMT + 4



Вы не можете начинать темы
Вы не можете отвечать на сообщения
Вы не можете редактировать свои сообщения
Вы не можете удалять свои сообщения
Вы не можете голосовать в опросах
Вы не можете прикреплять файлы к сообщениям
Вы не можете скачивать файлы