Даллас / Dallas / Сезон: 1 (ПОЛНЫЙ) / Серии: 1-10 (10) (Cynthia Cidre) [2012, Драма, WEB-DLRip 400] NewStudio

Ответить на тему
 
Автор
Сообщение

TYAnCE ®

Пол:

Стаж: 4 года 11 месяцев

Сообщений: 269

Репутация: 65 [+] [-]

Откуда: Туапсе

Пост 19-Июл-2012 13:36

[Цитировать] 

- Даллас / Dallas-Год выпуска: 2012
Страна: США
Слоган: «They're back. And no, you're not dreaming.»-Жанр: драма
Продолжительность: 00:45:00
Перевод: Профессиональный (двухголосый, закадровый) NewStudio-Режиссер: Стив Робин / Steve Robin
Режиссер: Синтия Сидре / Cynthia Cidre, Warner Horizon, Дэвид Джейкобс / David Jacobs
В ролях: Ларри Хэгмэн (J.R. Ewing), Патрик Даффи (Bobby Ewing), Джош Хендерсон (John Ross Ewing), Линда Грэй (Sue Ellen Ewing), Джесси Меткалф (Christopher Ewing), Джордана Брюстер (Elena Ramos), Джули Гонсало (Rebecca Sutter), Бренда Стронг (Ann Ewing), Стивен Джефферс (Head Doctor), Дженнифер Бессер (Bar Patron), Каллард Харрис (Tommy Sutter), Леонор Варела (Marta Del Sol)-Мировая премьера: 13 июня 2012-Описание: Сюжет разворачивается вокруг богатой техасской семьи Юингов, владеющей нефтяным бизнесом «Юинг Ойл» и ранчо со скотоводством. Сериал является продолжением одноименного телесериала, выходившего с 1978 по 1991 год.- -Над релизом работали:
Озвучка: Юлия Котурбаш, Артём Мирон
Перевод: Tigrena
Подготовка видео:Koss
Работа со звуком: Baggio
Рейтинг
imdb.com: 7.30 (535)-Качество: WEB-DLRip
Формат: AVI
Видео кодек: XviD
Аудио кодек: MP3
Видео: 720x400 (1.80), 23.976 fps, XviD MPEG-4, ~1492 kbps, 0.22 bit/pixel
Аудио RUS: 48 kHz, MPEG Layer 3, 2 ch, ~128 kbps
Аудио ENG: 48 kHz, MPEG Layer 3, 2 ch, ~128 kbps-

MI

Общее
Полное имя : E:\Dallas.s01\Dallas.s01e01.WEBDLRip.NewStudio.TV.avi
Формат : AVI
Формат/Информация : Audio Video Interleave
Размер файла : 700 Мбайт
Продолжительность : 55 м.
Режим общего битрейта : Переменный
Общий поток : 1761 Кбит/сек
Программа кодирования : VirtualDubMod 1.5.10.2 (build 2540/release)
Библиотека кодирования : VirtualDubMod build 2540/release
Видео
Идентификатор : 0
Формат : MPEG-4 Visual
Профиль формата : Advanced Simple@L5
Параметр BVOP формата : 2
Параметр QPel формата : Нет
Параметр GMC формата : Без точки перехода
Параметр матрицы формата : Default (MPEG)
Идентификатор кодека : XVID
Идентификатор кодека/Подсказка : XviD
Продолжительность : 55 м.
Битрейт : 1488 Кбит/сек
Ширина : 720 пикселей
Высота : 400 пикселей
Соотношение сторон : 16:9
Частота кадров : 23,976 кадра/сек
Цветовое пространство : YUV
Субдискретизация насыщенности : 4:2:0
Битовая глубина : 8 бит
Тип развёртки : Прогрессивная
Метод сжатия : С потерями
Бит/(Пиксели*Кадры) : 0.216
Размер потока : 592 Мбайт (85%)
Библиотека кодирования : XviD 64
Аудио #1
Идентификатор : 1
Формат : MPEG Audio
Версия формата : Version 1
Профиль формата : Layer 3
Режим : Joint stereo
Расширение режима : MS Stereo
Идентификатор кодека : 55
Идентификатор кодека/Подсказка : MP3
Продолжительность : 55 м.
Вид битрейта : Постоянный
Битрейт : 128 Кбит/сек
Каналы : 2 канала
Частота : 48,0 КГц
Метод сжатия : С потерями
Размер потока : 50,9 Мбайт (7%)
Выравнивание : Соединение по промежуткам
Продолжительность промежутка : 42 мс. (1,00 видеокадр)
Время предзагрузки промежутка : 504 мс.
Аудио #2
Идентификатор : 2
Формат : MPEG Audio
Версия формата : Version 1
Профиль формата : Layer 3
Режим : Joint stereo
Расширение режима : MS Stereo
Идентификатор кодека : 55
Идентификатор кодека/Подсказка : MP3
Продолжительность : 55 м.
Вид битрейта : Переменный
Битрейт : 128 Кбит/сек
Каналы : 2 канала
Частота : 48,0 КГц
Метод сжатия : С потерями
Размер потока : 50,6 Мбайт (7%)
Выравнивание : Соединение по промежуткам
Продолжительность промежутка : 24 мс. (0,58 видеокадр)
Время предзагрузки промежутка : 509 мс.
Библиотека кодирования : LAME3.90.
Настройки программы : -m j -V 4 -q 2 -lowpass 17.6 --abr 128

Скриншоты

Список серий

1. Changing of the Guard / Смена караула
2. Hedging Your Bets / Страхование сделки
3. The Price You Pay / Цена, которую заплатишь
4. The Last Hurrah / Последнее "ура"
5. Truth and Consequences / Правда и последствия
6. The Enemy of My Enemy / Враг моего врага
7. Collateral Damage / Побочный ущерб
8. No Good Deed / Ни одно доброе дело
9. Family Business / Семейный бизнес
10. Revelations / Откровения
1 СЕЗОН ОКОНЧЕН! ab

_________________
[Торрент-статистика]
[Профиль]  [ЛС] 

DarthNihilus

Пол:

Стаж: 5 лет

Сообщений: 1072

Репутация: 166 [+] [-]

Откуда: Антарктида

Пост 15-Окт-2012 14:40 (спустя 2 месяца 27 дней)

[Цитировать] 

на Ивана кастанули ресуррект...

_________________
[Нет сидов - включите DHT]
[Торрент-статистика]
[Профиль]  [ЛС] 

TYAnCE ®

Пол:

Стаж: 4 года 11 месяцев

Сообщений: 269

Репутация: 65 [+] [-]

Откуда: Туапсе

Пост 19-Окт-2012 17:38 (спустя 4 дня)

[Цитировать] 

на Ивана кастанули ресуррект...
Чего? bw

_________________
[Торрент-статистика]
[Профиль]  [ЛС] 

DarthNihilus

Пол:

Стаж: 5 лет

Сообщений: 1072

Репутация: 166 [+] [-]

Откуда: Антарктида

Пост 03-Дек-2012 13:20 (спустя 1 месяц 14 дней)

[Цитировать] 

18862
на Ивана кастанули ресуррект...
Чего? bw
Иван=Jock=J.R. который в конце ориг Далласа самоубился-ма. Дети, водка -это яд.

_________________
[Нет сидов - включите DHT]
[Торрент-статистика]
[Профиль]  [ЛС] 

TYAnCE ®

Пол:

Стаж: 4 года 11 месяцев

Сообщений: 269

Репутация: 65 [+] [-]

Откуда: Туапсе

Пост 03-Дек-2012 16:05 (спустя 2 часа 44 минуты)

[Цитировать] 

20634Иван=Jock=J.R. который в конце ориг Далласа самоубился-ма. Дети, водка -это яд.
Во загнул ag

_________________
[Торрент-статистика]
[Профиль]  [ЛС] 
Показать сообщения:    
Ответить на тему

Текущее время: Сегодня 20:38

Часовой пояс: GMT + 4



Вы не можете начинать темы
Вы не можете отвечать на сообщения
Вы не можете редактировать свои сообщения
Вы не можете удалять свои сообщения
Вы не можете голосовать в опросах
Вы не можете прикреплять файлы к сообщениям
Вы не можете скачивать файлы