Эта страшная буква "Р" / Преодолевая Рак / The Big C / Cезон 1 (1-13 серии) / (Билл Кондон) [2010 г., комедия, HDTVRip] (NewStudio)

Ответить на тему
 
Автор
Сообщение

diim ®

Пол:

Стаж: 1 год 10 месяцев

Сообщений: 1033

Репутация: 112 [+] [-]

Пост 19-Июн-2012 03:07

[Цитировать] 

Эта страшная буква "Р" / Преодолевая Рак / The Big C«Time to grab life by the balls.» Год выпуска: 2010
Страна: США
Жанр: драма
Продолжительность:
Перевод: профессиональный двухголосый закадровый (NewStudio)
Режиссёр: Билл Кондон-В ролях: Надя Дажани, Уильям Даффи, Pedro Hossi, Оливер Плэтт, Гэбриел Бассо, Fatimah Hassan, Джон Бенжамин Хикки, Саймон Кассианидес, Лора Линни, Джеймс Шрэм-Описание: Женщине из пригорода, жене и матери ставят страшный диагноз — рак. Она вынуждена находить светлые стороны в своей ситуации. Этот сериал — метафора о том, как должны жить все мы, но никогда не живем. О том, что надо наслаждаться моментом.- - -Качество: HDTVRip
Формат
: AVI
Видео кодек
: XviD
Аудио кодек: Mp3
Видео: 624x352 (1.77:1), 23.976 fps, XviD build 50 ~1126 kbps avg, 0.27 bit/pixel
Аудио:
Russian:MP3 2.0, 48 kHz, 128 kbps
English: MP3 2.0, 48 kHz, 128 kbpsВнимание! Сериал содержит ненормативную лексику

MI

General
Complete name : D:\Shara\Просмотр\Serials\The.Big.C.s01.HDTVRip\the.big.c.s01e01.hdtv_NewStudio.TV.avi
Format : AVI
Format/Info : Audio Video Interleave
File size : 300 MiB
Duration : 29mn 52s
Overall bit rate : 1 404 Kbps
Writing application : VirtualDubMod 1.5.10.2 (build 2540/release)
Writing library : VirtualDubMod build 2540/release
Video
ID : 0
Format : MPEG-4 Visual
Format profile : Advanced Simple@L5
Format settings, BVOP : Yes
Format settings, QPel : Yes
Format settings, GMC : No warppoints
Format settings, Matrix : Default (MPEG)
Muxing mode : Packed bitstream
Codec ID : XVID
Codec ID/Hint : XviD
Duration : 29mn 52s
Bit rate : 1 126 Kbps
Width : 624 pixels
Height : 352 pixels
Display aspect ratio : 16:9
Frame rate : 23.976 fps
Color space : YUV
Chroma subsampling : 4:2:0
Bit depth : 8 bits
Scan type : Progressive
Bits/(Pixel*Frame) : 0.214
Stream size : 241 MiB (80%)
Writing library : XviD 1.2.1 (UTC 2008-12-04)
Audio #1
ID : 1
Format : MPEG Audio
Format version : Version 1
Format profile : Layer 3
Mode : Joint stereo
Mode extension : MS Stereo
Codec ID : 55
Codec ID/Hint : MP3
Duration : 29mn 52s
Bit rate mode : Constant
Bit rate : 128 Kbps
Channel(s) : 2 channels
Sampling rate : 48.0 KHz
Stream size : 27.4 MiB (9%)
Alignment : Aligned on interleaves
Interleave, duration : 42 ms (1.00 video frame)
Interleave, preload duration : 504 ms
Audio #2
ID : 2
Format : MPEG Audio
Format version : Version 1
Format profile : Layer 3
Mode : Joint stereo
Mode extension : MS Stereo
Codec ID : 55
Codec ID/Hint : MP3
Duration : 29mn 52s
Bit rate mode : Variable
Bit rate : 128 Kbps
Channel(s) : 2 channels
Sampling rate : 48.0 KHz
Stream size : 28.2 MiB (9%)
Alignment : Aligned on interleaves
Interleave, duration : 24 ms (0.58 video frame)
Interleave, preload duration : 325 ms
Writing library : LAME3.90.
Encoding settings : -m j -V 4 -q 2 -lowpass 17.6 --abr 128

Скриншоты

[Торрент-статистика]
[Профиль]  [ЛС] 
Показать сообщения:    
Ответить на тему

Текущее время: Сегодня 20:38

Часовой пояс: GMT + 4



Вы не можете начинать темы
Вы не можете отвечать на сообщения
Вы не можете редактировать свои сообщения
Вы не можете удалять свои сообщения
Вы не можете голосовать в опросах
Вы не можете прикреплять файлы к сообщениям
Вы не можете скачивать файлы