Темный Ангел / Dark Angel / Сезон:2 /Серия 1-21 из 21(Джефф Вулнаф, Томас Дж. Райт, Джо Энн Фогл) [2001 г., Боевик, фантастика, DVDRip](Sci-Fi Россия)

Ответить на тему
 
Автор
Сообщение

awk05 ®

Пол:

Стаж: 4 года 5 месяцев

Сообщений: 1352

Репутация: 275 [+] [-]

Откуда: Западная Украина Ривне

Пост 15-Июн-2012 15:26

[Цитировать] 

--Темный Ангел / Dark Angel -- Год выпуска: 2001
Страна: США
Жанр: Боевик, фантастика
Сезон/Серия: Сезон:2 /Серия 1-21 из 21
Продолжительность: 21 х ~00:45:00 мин
Перевод: Профессиональный (многоголосый, закадровый)
Озвучка / Автор перевода: (Sci-Fi Россия)
Субтитры: отсутствуют--Режиссер: Джефф Вулнаф, Томас Дж. Райт, Джо Энн Фогл--В ролях: Джессика Альба (Max Guevera), Майкл Уэтерли (Logan Cale), Ричард Ганн (Calvin «Sketchy» Theodore), Дж.С. МакКензи (Reagan «Normal» Ronald), Валери Рэй Миллер (Cynthia «Original Cindy» McEachin), Джон Сэвэдж (Donald Lydecker), Дженсен Эклс (Alec), Алими Баллард (Herbal Thought), Мартин Камминс (Ames White), Кевин Дюран (Joshua), Эшли Скотт (Asha Barlow), Дженнифер Бланк (Kendra Maibaum), и др.--Описание: Электромагнитный импульс, устроенный террористами в 2009, превратил США в страну Третьего мира.
Главная героиня Макс Гевара (Джессика Альба) вместе со своими 11 друзьями сбегает из организации «Мантикора», где на генетическом уровне выращивали идеальных и непобедимых солдат. К сожалению, все ребята разбегаются, так что Макс делает все, чтобы найти их 9 лет спустя. С первых серий строится сюжетная линия фильма.
В начальных сериях Макс параллельно с работой курьера зарабатывает грабежом состоятельных людей и на очередной вылазке знакомится с Логаном, который тоже держит за собой тайну. Он под прикрытием «ОКА», в прямом эфире рассказывает о преступлениях в городе, так называемый «поток свободы». Он заключает устное соглашение с Макс: она помогает ему разоблачать преступный мир, а он взамен помогает находить ее друзей, сбежавших из «Мантикоры». Постепенно Макс их обнаруживает, но выясняется, что на генетически созданных солдат охотятся, чтобы вернуть их обратно на базу. Теперь, главное, не попасться в руки Лайдекера.
Во втором сезоне сериала страсти горят с новой силой. Макс и ее друзья взорвали Мантикору, но выпустили оттуда другие создания, которые никак не походят на обычных людей. Общественность узнает о мутантах и теперь на них открывается охота.--Качество видео: DVDRip
Формат видео: AVI
Видео кодек: MPEG4, XviD
Аудио кодек: MP3
Видео: MPEG4, XviD, 608x336 (16:9), 23.976 fps, 925 Kbps (0.189 bit/pixel)
Аудио 1: MP3, 48.0 KHz, 2 ch, 128 Kbps, CBR, 16 bits [Русский]
Аудио 2: MP3, 48.0 KHz, 2 ch, 128 Kbps, CBR, 16 bits [Английский] -- --

Кадры из фильма



Тех. данные (MI)

Код:
Общее
Полное имя                               : E:\СЕРИАЛЫ\Dark_Angel\Dark_Angel_s02_2002_XviD_DVDRip_rus_eng_NovaFilm_TV_avi\dark_angel.s02e01.dvdrip.rus.eng.novafilm_tv.avi
Формат                                   : AVI
Формат/Информация                        : Audio Video Interleave
Размер файла                             : 372 Мбайт
Продолжительность                        : 43 м.
Общий поток                              : 1195 Кбит/сек
Программа кодирования                    : VirtualDubMod 1.5.10.2 (build 2542/release)
Библиотека кодирования                   : VirtualDubMod build 2542/release
Видео
Идентификатор                            : 0
Формат                                   : MPEG-4 Visual
Параметр BVOP формата                    : Да
Параметр QPel формата                    : Нет
Параметр GMC формата                     : Без точки перехода
Параметр матрицы формата                 : Default (MPEG)
Идентификатор кодека                     : XVID
Идентификатор кодека/Подсказка           : XviD
Продолжительность                        : 43 м.
Битрейт                                  : 925 Кбит/сек
Ширина                                   : 608 пикселей
Высота                                   : 336 пикселей
Соотношение сторон                       : 16:9
Частота кадров                           : 23,976 кадра/сек
Цветовое пространство                    : YUV
Субдискретизация насыщенности            : 4:2:0
Битовая глубина                          : 8 бит
Тип развёртки                            : Прогрессивная
Метод сжатия                             : С потерями
Бит/(Пиксели*Кадры)                      : 0.189
Размер потока                            : 288 Мбайт (77%)
Аудио #1
Идентификатор                            : 1
Формат                                   : MPEG Audio
Версия формата                           : Version 1
Профиль формата                          : Layer 3
Режим                                    : Joint stereo
Расширение режима                        : MS Stereo
Идентификатор кодека                     : 55
Идентификатор кодека/Подсказка           : MP3
Продолжительность                        : 43 м.
Вид битрейта                             : Постоянный
Битрейт                                  : 128 Кбит/сек
Каналы                                   : 2 канала
Частота                                  : 48,0 КГц
Метод сжатия                             : С потерями
Размер потока                            : 39,9 Мбайт (11%)
Выравнивание                             : Соединение по промежуткам
Продолжительность промежутка             : 42  мс. (1,00 видеокадр)
Время предзагрузки промежутка            : 504  мс.
Аудио #2
Идентификатор                            : 2
Формат                                   : MPEG Audio
Версия формата                           : Version 1
Профиль формата                          : Layer 3
Режим                                    : Joint stereo
Расширение режима                        : MS Stereo
Идентификатор кодека                     : 55
Идентификатор кодека/Подсказка           : MP3
Продолжительность                        : 43 м.
Вид битрейта                             : Постоянный
Битрейт                                  : 128 Кбит/сек
Каналы                                   : 2 канала
Частота                                  : 48,0 КГц
Метод сжатия                             : С потерями
Размер потока                            : 39,9 Мбайт (11%)
Выравнивание                             : Соединение по промежуткам
Продолжительность промежутка             : 42  мс. (1,00 видеокадр)
Время предзагрузки промежутка            : 504  мс.
«СЕЗОН 1» «СЕЗОН 2»

_________________


Последний раз редактировалось: awk05 (2014-09-02 14:08), всего редактировалось 9 раз(а)
[Торрент-статистика]
[Профиль]  [ЛС] 

ArtZak

Пол:

Стаж: 5 лет 1 месяц

Сообщений: 3008

Репутация: 1363 [+] [-]

Откуда: Россия

Пост 16-Июн-2012 16:54 (спустя 1 день 1 час)

[Цитировать] 

Не тот заголовок Вы редактировали...
[Торрент-статистика]
[Профиль]  [ЛС] 

awk05 ®

Пол:

Стаж: 4 года 5 месяцев

Сообщений: 1352

Репутация: 275 [+] [-]

Откуда: Западная Украина Ривне

Пост 15-Дек-2012 15:20 (спустя 5 месяцев 28 дней)

[Цитировать] 

Я залил новый торрент файл

_________________
[Торрент-статистика]
[Профиль]  [ЛС] 

Chet

Пол:

Стаж: 5 лет 1 месяц

Сообщений: 1866

Репутация: 363 [+] [-]

Откуда: UA

Пост 15-Дек-2012 20:40 (спустя 5 часов)

[Цитировать] 

15026Сезон 2
экхмэ... а де ж 1-й сезон?
[Торрент-статистика]
[Профиль]  [ЛС] 

awk05 ®

Пол:

Стаж: 4 года 5 месяцев

Сообщений: 1352

Репутация: 275 [+] [-]

Откуда: Западная Украина Ривне

Пост 17-Дек-2012 01:15 (спустя 1 день 4 часа)

[Цитировать] 

http://brodim.com/viewtopic.php?t=4245

_________________
[Торрент-статистика]
[Профиль]  [ЛС] 
Показать сообщения:    
Ответить на тему

Текущее время: Сегодня 22:15

Часовой пояс: GMT + 4



Вы не можете начинать темы
Вы не можете отвечать на сообщения
Вы не можете редактировать свои сообщения
Вы не можете удалять свои сообщения
Вы не можете голосовать в опросах
Вы не можете прикреплять файлы к сообщениям
Вы не можете скачивать файлы